<?xml version="1.0" standalone="no"?>
<!DOCTYPE svg PUBLIC "-//W3C//DTD SVG 1.1//EN" "http://www.w3.org/Graphics/SVG/1.1/DTD/svg11.dtd" >
<!--
2013-9-15: Created.
-->
<svg xmlns="http://www.w3.org/2000/svg">
<metadata>
Created by FontForge 20120731 at Sun Sep 15 15:54:11 2013
 By Tyler Wanlass
Created by Tyler Wanlass with FontForge 2.0 (http://fontforge.sf.net)
</metadata>
<defs>
<font id="picto-foundry-household" horiz-adv-x="512" >
  <font-face 
    font-family="picto-foundry-household"
    font-weight="500"
    font-stretch="normal"
    units-per-em="512"
    panose-1="2 0 6 3 0 0 0 0 0 0"
    ascent="448"
    descent="-64"
    bbox="-0.5 -64 512.152 448.307"
    underline-thickness="25.6"
    underline-position="-51.2"
    unicode-range="U+F100-F134"
  />
    <missing-glyph />
    <glyph glyph-name="uniF100" unicode="&#xf100;" 
d="M331 135l13 13l14 -54l-54 14l13 13l-38 38c-7 -4 -14 -7 -23 -7c-23 0 -43 20 -43 43c0 20 15 37 34 41v102h-18l27 48l28 -48h-18v-102c19 -5 32 -21 32 -41c0 -8 -2 -16 -6 -22zM256 171c13 0 23 11 23 24s-10 23 -23 23s-24 -10 -24 -23s11 -24 24 -24zM512 350
c0 -22 -8 -43 -24 -59l-19 -19c9 -24 14 -50 14 -77c0 -61 -24 -116 -63 -157c46 -82 34 -93 30 -97c-3 -3 -7 -3 -10 -3c-8 0 -18 6 -22 9c-41 28 -74 33 -86 34c-24 -9 -49 -13 -76 -13s-53 5 -77 14c-7 0 -43 -2 -90 -35c-4 -3 -14 -9 -22 -9c-3 0 -6 0 -9 3
c-4 4 -18 15 31 100c-37 40 -60 95 -60 154c0 27 5 53 14 77l-19 19c-16 16 -24 37 -24 59c0 17 6 43 33 69c20 19 41 29 62 29c27 0 48 -15 60 -27l16 -16c26 11 55 16 85 16s59 -5 85 -16l16 16c12 12 33 27 60 27c21 0 42 -10 62 -29c27 -26 33 -52 33 -69zM38 304
l13 -13c21 45 57 82 101 105l-11 12c-10 10 -26 21 -46 21c-16 0 -33 -8 -49 -24c-18 -17 -27 -35 -27 -55c0 -17 7 -34 19 -46zM78 -38c27 19 52 29 70 34c-16 9 -31 20 -45 32c-16 -28 -28 -57 -31 -70c2 1 3 2 6 4zM435 -42c-3 13 -15 42 -29 67c-13 -12 -28 -22 -44 -30
c18 -5 41 -15 67 -33c3 -2 4 -3 6 -4zM329 0c78 30 135 106 135 195c0 115 -93 207 -208 207s-208 -92 -208 -207s93 -208 208 -208c25 0 48 4 70 12v2s1 -1 3 -1zM461 291l13 13c12 12 19 29 19 46c0 20 -9 38 -27 55c-16 16 -33 24 -49 24c-20 0 -36 -11 -46 -21l-12 -12
c44 -23 81 -60 102 -105z" />
    <glyph glyph-name="uniF101" unicode="&#xf101;" horiz-adv-x="393" 
d="M379 219c19 -19 19 -49 0 -68l-201 -201c-9 -9 -22 -14 -34 -14s-25 5 -34 14l-96 96c-19 19 -19 49 0 68l201 201c2 2 4 3 6 5l104 103c-2 7 -1 14 4 19c8 8 20 8 28 0s8 -19 0 -27c-5 -5 -12 -7 -19 -5l-82 -82c10 -1 19 -5 27 -13zM366 164c6 6 8 13 8 21s-2 15 -8 21
l-96 96c-6 6 -13 8 -21 8c-6 0 -11 -1 -16 -4l-31 -32l-1 1l-174 -174c-12 -12 -12 -30 0 -42l96 -96c6 -6 13 -8 21 -8s15 2 21 8zM330 183l-81 -81l-81 81l81 81zM173 72c0 13 6 19 19 19s19 -6 19 -19s-6 -19 -19 -19s-19 6 -19 19zM125 24c0 13 6 20 19 20s20 -7 20 -20
s-7 -19 -20 -19s-19 6 -19 19z" />
    <glyph glyph-name="uniF102" unicode="&#xf102;" horiz-adv-x="318" 
d="M318 448v0v-88h-48l36 -422l-18 -2l-21 246h-16l5 -200l-18 -1l-6 201h-147l-5 -201l-19 1l6 200h-16l-22 -246l-18 2l37 422h-48v88h318zM52 200h15l4 160h-5zM228 360h-138l-3 -117h144zM86 200h146l-1 25h-145v-25zM265 200l-14 160h-5l4 -160h15zM299 379v51h-281
v-51h281z" />
    <glyph glyph-name="uniF103" unicode="&#xf103;" horiz-adv-x="505" 
d="M487 180h18v-244h-18v69h-469v-69h-18v244h18v-54l96 173v5v143h19v-42c22 16 63 41 119 41c55 0 98 -25 120 -42v44h18v-60v-4v-82l31 -57h1v-1l65 -119v55zM130 290l-25 -45h295l-24 45h-246zM29 107h447l-66 120h-315z" />
    <glyph glyph-name="uniF104" unicode="&#xf104;" horiz-adv-x="317" 
d="M0 448h317v-512h-317v512zM298 -45v119h-279v-119h55v69h19v-69h19v78h18v-78h56v69h19v-69h56v69h18v-69h19zM298 92v103h-279v-103h27v80h19v-80h19v71h18v-71h56v53h19v-53h18v71h19v-71h84zM298 213v103h-279v-103h186v71h18v-71h19v80h18v-80h38zM298 334v95h-279
v-95h18v71h19v-71h56v71h18v-71h19v53h18v-53h131z" />
    <glyph glyph-name="uniF105" unicode="&#xf105;" 
d="M278 201l7 -6c23 -23 -3 -66 -6 -71l-105 -188l-174 174l181 112c1 1 25 15 46 15c10 0 19 -3 25 -9l13 -14l233 234l14 -13zM170 -33l66 118l-92 92l-114 -70zM263 134c7 12 18 38 8 48l-32 32c-3 3 -7 4 -12 4c-16 0 -36 -12 -36 -12l-31 -19l86 -85z" />
    <glyph glyph-name="uniF106" unicode="&#xf106;" horiz-adv-x="429" 
d="M382 448c26 0 47 -21 47 -47v-418c0 -26 -21 -47 -47 -47h-335c-26 0 -47 21 -47 47v418c0 26 21 47 47 47h335zM19 -17c0 -15 13 -28 28 -28h155v474h-155c-15 0 -28 -13 -28 -28v-418zM410 -17v418c0 15 -13 28 -28 28h-162v-474h162c15 0 28 13 28 28zM136 48
c0 12 7 18 19 18s19 -6 19 -18s-7 -19 -19 -19s-19 7 -19 19zM248 48c0 12 7 18 19 18s19 -6 19 -18s-7 -19 -19 -19s-19 7 -19 19z" />
    <glyph glyph-name="uniF107" unicode="&#xf107;" horiz-adv-x="347" 
d="M347 252v-69h-37l36 -244l-18 -3l-36 246l3 1h-8l10 -201l-18 -1l-10 202h-191l-10 -202l-18 1l10 201h-8l3 -1l-36 -246l-18 3l35 244h-36v69h48l-31 196h311l-28 -196h47zM38 430l28 -178h216l25 178h-269zM329 201v33h-39h-11h-210h-5h-46v-33h311z" />
    <glyph glyph-name="uniF108" unicode="&#xf108;" horiz-adv-x="360" 
d="M360 264v-72h-38l37 -253l-19 -3l-37 255l3 1h-8l10 -208l-19 -1l-10 209h-198l-10 -209l-19 1l10 208h-8l3 -1l-38 -255l-18 3l37 253h-38v72h46c-12 26 -32 83 -6 128c22 37 70 56 143 56s121 -19 142 -56c25 -45 4 -102 -9 -128h44zM57 382c-25 -42 1 -101 9 -118h229
c9 17 37 77 13 119c-17 31 -60 46 -125 46c-66 0 -108 -16 -126 -47zM341 211v34h-41h-16h-218v0h-47v-34h322z" />
    <glyph glyph-name="uniF109" unicode="&#xf109;" 
d="M493 448h19v-415h-19v83h-474v-83h-19v415h19v-53h474v53zM52 135v241h-33v-241h33zM100 135v241h-29v-241h29zM149 135v241h-29v-241h29zM197 135v241h-29v-241h29zM245 135v241h-29v-241h29zM294 135v241h-29v-241h29zM342 135v241h-29v-241h29zM390 135v241h-29v-241
h29zM439 135v241h-29v-241h29zM493 135v241h-35v-241h35z" />
    <glyph glyph-name="uniF10A" unicode="&#xf10a;" horiz-adv-x="429" 
d="M382 448c26 0 47 -21 47 -47v-418c0 -26 -21 -47 -47 -47h-335c-26 0 -47 21 -47 47v418c0 26 21 47 47 47h335zM47 429c-15 0 -28 -13 -28 -28v-12h391v12c0 15 -13 28 -28 28h-335zM382 -45c15 0 28 13 28 28v388h-391v-388c0 -15 13 -28 28 -28h335zM102 319v19h229
v-19h-229z" />
    <glyph glyph-name="uniF10B" unicode="&#xf10b;" 
d="M96 125l90 -89c22 -22 22 -58 0 -80c-11 -11 -26 -16 -40 -16s-29 5 -40 16l-90 90c-22 22 -22 57 0 79c11 11 26 17 40 17s29 -6 40 -17zM173 -31c15 15 15 38 0 53l-90 90c-7 7 -17 11 -27 11s-19 -4 -26 -11c-15 -15 -15 -38 0 -53l90 -90c7 -7 16 -11 26 -11
s20 4 27 11zM149 72l-13 13l203 204l-43 43l13 13l44 -43l51 51l-65 66l26 26l66 -65l68 68l13 -13z" />
    <glyph glyph-name="uniF10C" unicode="&#xf10c;" horiz-adv-x="429" 
d="M377 11h52v-75h-429v75h51v437h326v-437zM70 429v-418h289v418h-289zM410 -45v37h-33h-326h-32v-37h391zM281 205c0 12 7 18 19 18s18 -6 18 -18s-6 -19 -18 -19s-19 7 -19 19z" />
    <glyph glyph-name="uniF10D" unicode="&#xf10d;" 
d="M459 448l53 -72v-371h-105v86h-31v-86h-104v86h-31c0 1 -1 3 -1 4v-90h-104v86h-31v-86h-105v371l52 72l53 -72v-63h31v63l52 72l52 -72v-63h32v63l52 72l52 -72v-63h31v63zM87 23v0v347l-35 48l-34 -48v-347h69zM136 106v192h-31v-192h31zM222 23v0v347l-34 48l-34 -48
v-347h68zM272 106v192h-31c0 1 -1 3 -1 4v-196h32zM358 23v0v347l-34 48l-34 -48v-347h68zM407 106v192h-31v-192h31zM494 23v0v347l-34 48l-35 -48v-347h69z" />
    <glyph glyph-name="uniF10E" unicode="&#xf10e;" horiz-adv-x="491" 
d="M491 448v-18h-16l-91 -467h-162c-15 -17 -37 -27 -61 -27c-46 0 -83 37 -83 83c0 30 16 55 39 70l-7 341h-49c2 -4 4 -9 4 -14c0 -18 -15 -33 -33 -33s-32 15 -32 33c0 16 12 30 28 32v0h463zM46 416c0 8 -6 14 -14 14s-14 -6 -14 -14s6 -14 14 -14s14 6 14 14zM161 -46
c35 0 64 30 64 65s-29 64 -64 64s-64 -29 -64 -64s29 -65 64 -65zM369 -18l87 448h-328l7 -333c8 3 17 4 26 4c46 0 82 -36 82 -82c0 -13 -2 -26 -8 -37h134zM210 299v18h140v-18h-140zM210 253v18h140v-18h-140z" />
    <glyph glyph-name="uniF10F" unicode="&#xf10f;" horiz-adv-x="493" 
d="M490 72c-7 -14 -25 -61 3 -129l-17 -7c-27 65 -15 113 -6 136h-72c-7 -14 -25 -61 3 -129l-17 -7c-27 65 -15 113 -6 136h-72c-7 -14 -25 -61 3 -129l-17 -7c-27 65 -15 113 -6 136h-72c-7 -14 -25 -61 3 -129l-17 -7c-27 65 -15 113 -6 136h-71c-7 -14 -25 -61 3 -129
l-17 -7c-27 65 -16 113 -7 136h-71c-7 -14 -25 -61 3 -129l-17 -7c-32 76 -10 130 -2 146v9h235l142 357l17 -7l-139 -350h222v-19h-2z" />
    <glyph glyph-name="uniF110" unicode="&#xf110;" 
d="M426 448v0v0zM506 440c0 0 22 -139 -20 -181l-130 -130c-9 -9 -22 -14 -34 -14s-24 5 -33 14l-43 43c-6 -2 -17 -2 -33 2c-5 1 -7 0 -8 -1c-4 -3 -5 -9 -6 -14c8 -16 6 -36 -8 -50l-117 -117c-9 -9 -19 -12 -30 -12s-22 3 -31 12c-17 17 -17 45 0 62l116 116
c9 9 20 13 31 13c8 0 17 -2 24 -7c2 5 6 9 10 12c5 3 13 7 24 4c4 -1 6 -2 9 -2l-32 32c-18 18 -18 49 0 67l131 131c22 22 63 28 100 28v0v-19c-42 0 -73 -7 -87 -22l-131 -131c-5 -5 -8 -12 -8 -20s3 -15 8 -20l94 -94c5 -5 12 -8 20 -8s15 3 20 8l131 131
c24 24 23 100 16 151c-14 2 -38 5 -63 5v19c42 0 80 -8 80 -8zM177 122c5 5 8 10 8 17c0 5 -2 10 -5 14h-1v2l-2 2c-5 5 -10 7 -17 7s-13 -2 -18 -7l-116 -116c-10 -10 -10 -25 0 -35c5 -5 11 -7 18 -7s12 2 17 7zM443 391l14 -13l-137 -137l-13 14z" />
    <glyph glyph-name="uniF111" unicode="&#xf111;" 
d="M207 448v-201h25v-86h-25v-180l-207 -37v328s59 154 207 176zM48 -29v98l-30 -5v-98zM48 88v233c-17 -24 -27 -45 -30 -52v-186zM94 -21v98l-28 -5v-98zM94 96v278c-10 -9 -20 -19 -28 -29v-254zM140 -12v98l-27 -5v-98zM140 104v303c-10 -5 -18 -12 -27 -18v-290z
M188 -4v98l-29 -5v-98zM188 113v312c-10 -3 -20 -5 -29 -9v-308zM305 448c148 -22 207 -176 207 -176v-328l-207 37v467zM353 -9v98l-29 5v-98zM353 108v308c-9 4 -19 6 -29 9v-312zM399 -17v98l-27 5v-98zM399 100v289c-9 6 -17 13 -27 18v-302zM446 -26v99l-28 5v-99z
M446 345v0c-8 10 -17 20 -28 29v-278l28 -4v253zM494 -34v98l-30 6v-99zM494 83v186c-3 7 -13 28 -30 52v-233z" />
    <glyph glyph-name="uniF112" unicode="&#xf112;" horiz-adv-x="425" 
d="M185 77c-102 0 -185 84 -185 186s83 185 185 185s186 -83 186 -185s-84 -186 -186 -186zM275 121c42 26 70 71 76 122c-23 -4 -70 -8 -93 26c-3 4 -5 5 -6 6c-7 -6 -12 -48 -8 -64c2 -7 7 -14 13 -20c8 -9 18 -20 18 -37v-33zM230 424c-2 -20 -1 -47 6 -55
c1 -2 3 -2 4 -2c15 -1 28 -8 39 -15c4 -2 8 -5 11 -6c6 16 11 33 12 36c-20 19 -45 34 -72 42zM18 263c0 -10 1 -20 3 -29l18 -3c18 -3 26 -21 32 -34c3 -8 7 -16 11 -17c3 -1 5 0 6 1c7 5 7 41 7 55c0 43 6 52 21 61c3 2 6 3 9 6c8 7 17 9 25 10c14 2 22 4 24 26
c1 10 -2 12 -2 12c-3 2 -15 -2 -24 -4c-12 -3 -25 -7 -38 -6c-9 1 -16 5 -21 12c-7 11 -8 28 -7 41c-39 -31 -64 -78 -64 -131zM36 213l-11 1c21 -69 85 -119 160 -119c25 0 49 6 71 16v43c0 9 -5 16 -13 25c-7 7 -14 16 -17 28c-4 16 -2 75 19 85c7 3 17 3 28 -13
c19 -28 64 -21 80 -17v1c0 39 -14 75 -37 104c-3 -8 -6 -19 -10 -29c-3 -6 -7 -9 -10 -10c-2 -1 -3 -1 -5 -1c-7 0 -14 5 -22 10c-9 6 -20 12 -30 12c-7 0 -13 4 -17 9c-13 16 -12 51 -10 69c-9 1 -18 3 -27 3c-30 0 -58 -8 -82 -22c-3 -14 -5 -35 1 -44c2 -3 5 -5 8 -5
c9 -1 20 3 31 6c16 4 31 8 41 0c6 -5 9 -15 8 -28c-3 -36 -25 -40 -39 -42c-7 -1 -13 -2 -16 -5c-4 -4 -8 -6 -11 -8c-8 -5 -13 -9 -13 -46c0 -40 -2 -60 -13 -69c-4 -3 -9 -5 -15 -5h-6c-14 2 -20 16 -25 28c-6 13 -10 22 -18 23zM425 263c0 -129 -102 -235 -230 -240v-69
h109v-18h-242v18h114v69c-61 2 -116 27 -157 67l13 13c40 -39 93 -62 153 -62c122 0 222 100 222 222c0 61 -24 116 -64 156l13 13c43 -43 69 -103 69 -169z" />
    <glyph glyph-name="uniF113" unicode="&#xf113;" 
d="M257 448l255 -255l-13 -13l-52 52v-228c0 -25 -20 -46 -45 -46h-291c-25 0 -45 21 -45 46v228l-53 -53l-13 13zM318 -24v223h-121v-223h121zM429 4v246l-172 172l-173 -172v-246c0 -15 12 -28 27 -28h68v241h157v-241h66c15 0 27 13 27 28z" />
    <glyph glyph-name="uniF114" unicode="&#xf114;" 
d="M257 448l255 -255l-13 -13l-52 52v-228c0 -25 -20 -46 -45 -46h-291c-25 0 -45 21 -45 46v228l-53 -53l-13 13zM429 4v246l-172 172l-173 -172v-246c0 -15 12 -28 27 -28h86h121h84c15 0 27 13 27 28z" />
    <glyph glyph-name="uniF115" unicode="&#xf115;" 
d="M257 448l255 -255l-13 -13l-52 52v-228c0 -25 -20 -46 -45 -46h-291c-25 0 -45 21 -45 46v228l-53 -53l-13 13zM318 -24v223h-121v-223h121z" />
    <glyph glyph-name="uniF116" unicode="&#xf116;" horiz-adv-x="500" 
d="M468 329l32 -3l-31 -390l-469 38l32 390l38 -3l163 76c3 6 10 11 17 11c10 0 18 -8 19 -18zM235 418l-127 -60l311 -25l-159 80c-3 -2 -6 -3 -10 -3c-6 0 -12 4 -15 8zM452 -44l28 353l-431 35l-29 -353zM63 26l22 276l353 -28l-23 -276zM83 44l315 -26l5 66l-67 59
l-34 -20l-51 25l-47 -17l-33 25l-83 -56zM188 167l20 -15l44 16l49 -24l20 12l-65 57zM417 256l-315 26l-12 -158l167 113l148 -130z" />
    <glyph glyph-name="uniF117" unicode="&#xf117;" horiz-adv-x="293" 
d="M293 151v0h-112v-33c39 -16 66 -71 66 -113c0 -24 -9 -48 -25 -66l-2 -3h-149l-3 3c-16 18 -24 42 -24 66c0 42 27 97 66 113v33h-110v297h293v-297zM18 169h92v0h71v0h93v261h-256v-261zM169 103l-6 2v46h-35v-46l-7 -2c-34 -10 -59 -60 -59 -98c0 -18 7 -36 18 -51h131
c11 15 17 33 17 51c0 38 -25 88 -59 98z" />
    <glyph glyph-name="uniF118" unicode="&#xf118;" horiz-adv-x="422" 
d="M106 77v81h18v-81h-18zM220 160v-206h112v-18h-242v18h112v206h-202l151 266h51v22h18v-22h51l151 -266h-202zM32 178h359l-130 230h-99z" />
    <glyph glyph-name="uniF119" unicode="&#xf119;" horiz-adv-x="387" 
d="M284 -45v0h103v-19h-224v19h103v420c0 27 -7 44 -20 51c-32 16 -100 -23 -135 -48c18 -20 14 -57 -12 -85c-16 -18 -38 -28 -57 -28c-11 0 -22 3 -29 10c-21 19 -16 58 11 87c16 18 38 28 57 28c5 0 9 -1 13 -2c27 20 112 78 160 55c20 -10 31 -33 31 -68
c0 -132 -1 -382 -1 -420zM85 306c19 21 25 48 12 60c-4 4 -9 6 -16 6c-14 0 -30 -9 -43 -23c-19 -21 -25 -48 -12 -60c4 -4 9 -6 16 -6c14 0 30 9 43 23z" />
    <glyph glyph-name="uniF11A" unicode="&#xf11a;" horiz-adv-x="366" 
d="M183 448c101 0 183 -73 183 -174c0 -118 -107 -139 -108 -216h-150c0 75 -108 93 -108 216c0 101 82 174 183 174zM242 77c6 31 27 54 48 76c28 31 58 63 58 121c0 89 -71 156 -165 156s-165 -67 -165 -156c0 -62 30 -94 59 -124c20 -21 41 -43 47 -73h50v117
c-2 -1 -5 0 -7 0c-11 0 -23 5 -34 15c-19 17 -25 39 -14 51c4 5 11 7 18 7c11 0 24 -5 35 -15c5 -5 9 -10 12 -15c3 5 8 10 13 15c11 10 23 15 34 15c7 0 14 -2 18 -7c11 -12 6 -34 -13 -51c-11 -10 -24 -15 -35 -15c-3 0 -6 0 -9 1v-118h50zM209 238
c-12 -11 -15 -22 -12 -25c1 -1 3 -1 4 -1c5 0 13 2 22 10c12 11 15 23 12 26c-1 1 -3 1 -4 1c-5 0 -13 -3 -22 -11zM171 213c3 3 0 14 -12 25c-9 8 -17 11 -22 11c-1 0 -3 0 -4 -1c-3 -3 0 -15 12 -26c9 -8 17 -10 22 -10c1 0 3 0 4 1zM108 9v18h150v-18h-150zM117 -27v18
h132v-18h-132zM117 -64v18h132v-18h-132z" />
    <glyph glyph-name="uniF11B" unicode="&#xf11b;" horiz-adv-x="494" 
d="M494 -24h-119c-14 -26 -71 -40 -125 -40s-111 14 -125 40h-125l127 141s11 97 121 97s121 -97 121 -97zM248 196c-72 0 -94 -48 -100 -70h200c-6 22 -28 70 -100 70zM141 105l-100 -111h412l-98 111l-2 3h-210zM250 -46c48 0 84 11 100 22h-201c16 -11 53 -22 101 -22z
M256 448v-234h-8h-10v234h18z" />
    <glyph glyph-name="uniF11C" unicode="&#xf11c;" horiz-adv-x="356" 
d="M178 347c-10 0 -18 8 -18 18s8 18 18 18s18 -8 18 -18s-8 -18 -18 -18zM178 42c10 0 18 -8 18 -18s-8 -18 -18 -18s-18 8 -18 18s8 18 18 18zM302 448c30 0 54 -24 54 -54v-404c0 -30 -24 -54 -54 -54h-248c-30 0 -54 24 -54 54v404c0 30 24 54 54 54h248zM338 -10v404
c0 20 -16 36 -36 36h-248c-20 0 -36 -16 -36 -36v-404c0 -20 16 -36 36 -36h248c20 0 36 16 36 36zM132 163v137h92v-137v-68h-92v68zM206 282h-56v-110h56v110z" />
    <glyph glyph-name="uniF11D" unicode="&#xf11d;" 
d="M465 448c26 0 47 -21 47 -47v-273c0 -26 -21 -46 -47 -46h-418c-26 0 -47 20 -47 46v273c0 26 21 47 47 47h305h19h94zM19 128c0 -15 13 -28 28 -28h305v329h-305c-15 0 -28 -13 -28 -28v-273zM493 128v273c0 15 -13 28 -28 28h-94v-329h94c15 0 28 13 28 28zM303 156
v226h19v-226h-19zM419 251c0 12 6 19 18 19s19 -7 19 -19s-7 -18 -19 -18s-18 6 -18 18zM419 177c0 12 6 18 18 18s19 -6 19 -18s-7 -19 -19 -19s-18 7 -18 19zM393 311v57h77v-57h-77z" />
    <glyph glyph-name="uniF11E" unicode="&#xf11e;" horiz-adv-x="498" 
d="M428 345c12 -22 103 -190 59 -270c-12 -21 -32 -35 -59 -40v-51c0 -44 -200 -48 -223 -48s-205 4 -205 48v419c0 42 157 45 205 45c23 0 223 -1 223 -45v-58zM205 429c-128 0 -181 -17 -186 -26c6 -9 65 -26 186 -26c126 0 194 16 204 26c-10 10 -78 26 -204 26zM409 52
v331c-50 -24 -185 -25 -204 -25c-38 0 -143 2 -186 23v-394l1 -4c13 -10 64 -29 186 -29c116 0 181 18 199 28c1 0 4 4 4 6v45h-11c-70 0 -139 37 -200 109c-44 52 -69 104 -74 115c-5 -2 -11 -4 -17 -4c-26 0 -47 21 -47 47s21 47 47 47s47 -21 47 -47
c0 -14 -7 -26 -17 -35l4 1c1 -2 103 -224 268 -214v0zM135 300c0 16 -12 28 -28 28s-28 -12 -28 -28s12 -28 28 -28s28 12 28 28zM470 84c30 55 -15 165 -42 220v-250c20 5 34 15 42 30z" />
    <glyph glyph-name="uniF11F" unicode="&#xf11f;" horiz-adv-x="489" 
d="M489 225l-164 -150l-34 -34c-11 -11 -27 -17 -43 -17s-31 6 -42 17l-19 19l-99 -106c-3 -4 -14 -18 -33 -18c-12 0 -24 6 -36 18c-14 14 -21 28 -19 42c2 16 14 26 18 28l106 99l-21 21c-12 12 -18 28 -17 44c1 15 8 29 20 39l28 28l178 193zM172 267l-19 -19l160 -159
l18 18c0 4 -7 21 -37 56c-49 58 -106 103 -122 104zM343 380l-32 40l-127 -137c47 -19 145 -123 162 -162v-2l118 108l-33 43l-82 -82l-13 13l83 83l-26 34l-87 -87l-13 13l88 88l-27 34l-91 -92l-13 13zM278 54l22 22l-160 160l-22 -23c-8 -7 -13 -16 -14 -26
c-1 -11 4 -22 12 -30l34 -35l-122 -113s-9 -6 -10 -16c-1 -8 3 -16 13 -26c9 -9 17 -13 24 -13c11 0 18 11 18 11l1 1l113 120l32 -32c8 -8 18 -12 29 -12s22 4 30 12zM48 -10c0 6 3 9 9 9s9 -3 9 -9s-3 -9 -9 -9s-9 3 -9 9z" />
    <glyph glyph-name="uniF120" unicode="&#xf120;" 
d="M511 356c6 -21 -12 -51 -41 -68c-36 -22 -180 -62 -214 -71v-40h38v-237h-100v237h43v54l7 2c2 0 178 48 216 71c23 14 36 36 33 47c-2 9 -17 11 -25 11h-32v-3c0 -31 -26 -57 -57 -57h-322c-31 0 -57 26 -57 57v32c0 31 26 57 57 57h322c31 0 57 -26 57 -57v-10h32
c31 0 41 -16 43 -25zM417 359v32c0 21 -17 38 -38 38h-322c-21 0 -38 -17 -38 -38v-32c0 -21 17 -38 38 -38h322c21 0 38 17 38 38zM275 -41v199h-62v-199h62z" />
    <glyph glyph-name="uniF121" unicode="&#xf121;" 
d="M409 196l3 -4c22 -22 22 -58 0 -80l-160 -129c-11 -11 -26 -16 -41 -16c-14 0 -29 5 -40 16l-33 33l-79 -79l-59 58l80 80l-33 33c-22 22 -22 58 0 80l128 161c11 11 26 16 40 16c15 0 29 -5 40 -16l5 -4l103 103l13 -13l-103 -103l123 -123l103 103l13 -13z" />
    <glyph glyph-name="uniF122" unicode="&#xf122;" 
d="M409 196l3 -4c22 -22 22 -58 0 -80l-160 -129c-11 -11 -26 -16 -41 -16s-29 5 -40 16l-33 33l-79 -79l-59 58l80 80l-33 33c-22 22 -22 58 0 80l128 161c11 11 25 16 40 16s30 -5 41 -16l4 -4l103 103l13 -13l-103 -103l123 -123l103 103l13 -13zM59 -37l66 66l-32 33
l-67 -67zM400 126c14 15 14 38 -1 53l-157 157c-7 7 -17 11 -27 11s-19 -4 -26 -11l-128 -159l-1 -1v-1c-15 -15 -15 -39 0 -54l124 -125c7 -7 17 -11 27 -11s20 4 27 11l1 1l1 1z" />
    <glyph glyph-name="uniF123" unicode="&#xf123;" 
d="M252 -51l-13 -13l-239 239l13 13zM512 435l-236 -237c22 -26 31 -63 26 -105c-5 -40 -23 -80 -47 -104l-6 -7l-202 202l7 7c28 28 78 48 125 48c34 0 62 -9 83 -27l237 236zM283 96c3 23 2 67 -27 96c-23 23 -54 28 -77 28c-38 0 -79 -15 -105 -36l174 -174
c18 21 31 53 35 86z" />
    <glyph glyph-name="uniF124" unicode="&#xf124;" 
d="M504 205c0 0 17 -25 1 -62l-75 -131s-18 -25 -49 -26h-50l1 -46l-60 104l59 106v-43h75v0c7 0 10 5 8 11l-66 118l104 61zM489 151c11 26 0 43 0 44l-1 1v0l-43 76l-73 -43l58 -102l1 -1v-1c3 -8 3 -18 -2 -25s-13 -11 -23 -11v0h-1l-74 -1h-14l-24 -44l23 -40h15l50 1
c19 1 31 14 33 17zM111 108h133l1 -122l-104 -1h-2c-7 0 -32 2 -52 30l-74 132s-13 27 2 55l24 45l-39 23h119l61 -104l-37 21l-37 -66c-4 -6 -1 -12 5 -13zM140 3l86 1v86l-115 -1h-1h-2c-9 1 -16 7 -20 15s-3 17 2 26l37 66l7 13l-26 43h-45l-8 -14l-24 -44
c-9 -17 -3 -35 -2 -39l73 -130c15 -21 34 -22 37 -22h1v0zM388 292l-119 -1l36 22l-38 65c-2 4 -4 6 -7 6c-2 0 -4 -1 -6 -3l-67 -118l-104 61l52 92s12 28 52 32l150 -1s29 -3 45 -30l26 -43l39 23zM283 387l38 -65l7 -12h49l23 41l-8 14l-25 43c-10 17 -28 20 -32 21
l-147 1c-27 -3 -37 -21 -37 -22v-1v0l-43 -76l72 -43l58 102v1l1 1c5 7 13 10 21 10c10 0 18 -6 23 -15z" />
    <glyph glyph-name="uniF125" unicode="&#xf125;" horiz-adv-x="323" 
d="M277 448c26 0 46 -21 46 -47v-418c0 -26 -20 -47 -46 -47h-230c-26 0 -47 21 -47 47v418c0 26 21 47 47 47h230zM47 429c-15 0 -28 -13 -28 -28v-287h286v287c0 15 -13 28 -28 28h-230zM277 -45c15 0 28 13 28 28v113h-286v-113c0 -15 13 -28 28 -28h230zM51 146v223h18
v-223h-18zM51 47v18h223v-18h-223z" />
    <glyph glyph-name="uniF126" unicode="&#xf126;" horiz-adv-x="360" 
d="M314 448c26 0 46 -21 46 -47v-418c0 -26 -20 -47 -46 -47h-267c-26 0 -47 21 -47 47v418c0 26 21 47 47 47h267zM19 -17c0 -15 13 -28 28 -28h125v474h-125c-15 0 -28 -13 -28 -28v-418zM342 -17v418c0 15 -13 28 -28 28h-123v-474h123c15 0 28 13 28 28zM128 47v296h18
v-296h-18zM216 47v296h19v-296h-19z" />
    <glyph glyph-name="uniF127" unicode="&#xf127;" 
d="M460 339c-13 0 -24 4 -34 11l-224 -224l70 -71l-96 -96c-18 -18 -47 -23 -76 -23c-45 0 -89 13 -89 13s-31 125 10 166l96 96l72 -72l224 224c-7 9 -11 22 -11 34s23 42 29 51l81 -81c-9 -6 -40 -28 -52 -28zM246 55l-57 58l-71 -70l-13 13l71 70l-59 59l-83 -83
c-13 -13 -18 -42 -15 -84c2 -22 6 -42 8 -54c15 -4 44 -10 73 -10c30 0 51 6 63 18zM434 420c-9 -14 -12 -21 -13 -24c0 -22 17 -39 39 -39c3 1 9 4 23 13z" />
    <glyph glyph-name="uniF128" unicode="&#xf128;" horiz-adv-x="227" 
d="M208 262l19 -279c0 -26 -21 -47 -47 -47h-133c-26 0 -47 21 -47 47l19 279c0 26 21 47 47 47h7v82h30v55l9 1c55 4 83 -3 86 -19l-18 -3v-2c-5 4 -30 6 -58 5v-38l30 -1v-80h9c26 0 47 -21 47 -47zM202 70l-8 116h-161l-8 -116h177zM92 372v-63h41v62zM38 261v0l-4 -56
h159l-4 56v0v1c0 16 -12 28 -28 28h-95c-16 0 -28 -12 -28 -28v-1zM180 -45c15 0 28 13 28 28l-5 68h-179l-5 -68c0 -15 13 -28 28 -28h133z" />
    <glyph glyph-name="uniF129" unicode="&#xf129;" 
d="M456 335c31 0 56 -25 56 -56v-252h-111h-9h-272h-9h-111v252c0 31 25 56 56 56h8h8v51l4 3c109 79 250 79 359 0l4 -3v-51c3 1 6 0 9 0h8zM102 46v233c0 21 -17 38 -38 38h-8c-21 0 -37 -17 -37 -38v-233h83zM392 46v111h-272v-111h272zM392 176v56h-272v-56h272z
M392 279c0 22 13 41 31 50h-3v48c-100 70 -228 70 -329 0v-48h-2c18 -9 31 -28 31 -50v-28h272v28zM493 46v233c0 21 -16 38 -37 38h-8c-21 0 -38 -17 -38 -38v-233h83z" />
    <glyph glyph-name="uniF12A" unicode="&#xf12a;" 
d="M465 448c26 0 47 -21 47 -47v-418c0 -26 -21 -47 -47 -47h-418c-26 0 -47 21 -47 47v418c0 26 21 47 47 47h418zM47 429c-15 0 -28 -13 -28 -28v-400h474v400c0 15 -13 28 -28 28h-418zM465 -45c15 0 28 12 28 27h-474c0 -15 13 -27 28 -27h418zM320 232
c-45 0 -81 36 -81 81s36 82 81 82s81 -37 81 -82s-36 -81 -81 -81zM320 376c-35 0 -63 -28 -63 -63s28 -62 63 -62s63 27 63 62s-28 63 -63 63zM124 232c-45 0 -81 36 -81 81s36 82 81 82s82 -37 82 -82s-37 -81 -82 -81zM124 376c-35 0 -62 -28 -62 -63s27 -62 62 -62
s63 27 63 62s-28 63 -63 63zM124 37c-45 0 -81 36 -81 81s36 81 81 81s82 -36 82 -81s-37 -81 -82 -81zM124 181c-35 0 -62 -28 -62 -63s27 -63 62 -63s63 28 63 63s-28 63 -63 63zM320 37c-45 0 -81 36 -81 81s36 81 81 81s81 -36 81 -81s-36 -81 -81 -81zM320 181
c-35 0 -63 -28 -63 -63s28 -63 63 -63s63 28 63 63s-28 63 -63 63zM431 144c0 12 7 18 19 18s18 -6 18 -18s-6 -19 -18 -19s-19 7 -19 19zM431 78c0 12 7 19 19 19s18 -7 18 -19s-6 -18 -18 -18s-19 6 -19 18zM431 351c0 12 7 18 19 18s18 -6 18 -18s-6 -19 -18 -19
s-19 7 -19 19zM431 285c0 12 7 19 19 19s18 -7 18 -19s-6 -18 -18 -18s-19 6 -19 18z" />
    <glyph glyph-name="uniF12B" unicode="&#xf12b;" horiz-adv-x="502" 
d="M341 262l161 -174h-502l157 175v139c0 25 21 46 46 46h93c25 0 45 -21 45 -46v-140zM203 430c-15 0 -28 -13 -28 -28v-132h148v132c0 15 -12 28 -27 28h-93zM171 251l-130 -145h419l-132 143l-3 3h-154v-1zM192 12c8 -6 18 -13 20 -29c4 -30 -27 -46 -28 -47l-8 16
s20 12 18 29c-1 7 -5 11 -13 16c-9 6 -20 14 -20 32c0 13 5 20 9 24c9 9 22 9 23 9v-18s-6 0 -10 -4c-2 -2 -4 -6 -4 -11c0 -8 5 -11 13 -17zM127 12c8 -6 19 -13 21 -29c4 -30 -27 -46 -28 -47l-8 16s20 12 18 29c-1 7 -5 11 -13 16c-9 6 -20 14 -20 32c0 13 5 20 9 24
c9 9 22 9 23 9l-1 -18s-5 0 -9 -4c-2 -2 -4 -6 -4 -11c0 -8 4 -11 12 -17zM320 12c8 -6 19 -13 21 -29c4 -30 -27 -46 -28 -47l-9 16s21 12 19 29c-1 7 -6 11 -14 16c-9 6 -20 14 -20 32c0 13 5 20 9 24c9 9 22 9 23 9v-18s-6 0 -10 -4c-2 -2 -4 -6 -4 -11
c0 -8 5 -11 13 -17zM384 12c8 -6 19 -13 21 -29c4 -30 -27 -46 -28 -47l-9 16s21 12 19 29c-1 7 -6 11 -14 16c-9 6 -20 14 -20 32c0 13 6 20 10 24c9 9 22 9 23 9l-1 -18s-6 0 -10 -4c-2 -2 -3 -6 -3 -11c0 -8 4 -11 12 -17zM256 12c8 -6 19 -13 21 -29
c4 -30 -27 -46 -28 -47l-9 16s20 12 18 29c-1 7 -5 11 -13 16c-9 6 -20 14 -20 32c0 13 5 20 9 24c9 9 22 9 23 9v-18s-6 0 -10 -4c-2 -2 -4 -6 -4 -11c0 -8 5 -11 13 -17z" />
    <glyph glyph-name="uniF12C" unicode="&#xf12c;" 
d="M512 -21l-18 -3l-56 338l4 -249h-18l-6 365h-106v-297h42v-71h-194v71h46v297h-102l-3 -365h-19l3 269l-67 -358l-18 4l88 468h347zM335 81v33h-157v-33h157zM294 133v297h-69v-297h69z" />
    <glyph glyph-name="uniF12D" unicode="&#xf12d;" 
d="M512 366c0 -18 -18 -34 -49 -48v-256h-19v249c-19 -7 -42 -13 -67 -17v-161h-19v158c-31 -4 -66 -7 -102 -7s-71 3 -102 7v-158h-19v161c-24 4 -46 9 -64 15v-247h-18v254c-33 14 -53 31 -53 50c0 45 115 82 256 82s256 -37 256 -82zM431 326c43 14 62 30 62 40
s-19 26 -62 40c-47 15 -109 23 -175 23s-128 -8 -175 -23c-43 -14 -62 -30 -62 -40s19 -26 62 -40c47 -15 108 -23 175 -23c66 0 128 8 175 23z" />
    <glyph glyph-name="uniF12E" unicode="&#xf12e;" 
d="M512 289h-74v-228h-19v228h-65v-131h-18v131h-176v-130h-19v130h-57v-228h-19v228h-65l140 159h223zM41 308v0h428l-114 121h-207z" />
    <glyph glyph-name="uniF12F" unicode="&#xf12f;" 
d="M281 301l123 38l-41 -115c3 -10 5 -21 5 -32c0 -62 -50 -111 -112 -111s-111 49 -111 111s49 112 111 112c8 0 17 -1 25 -3zM256 99c51 0 93 42 93 93c0 11 -2 21 -5 31v0v1c-10 28 -34 50 -63 58l-2 -1v2c-7 2 -15 2 -23 2c-51 0 -93 -42 -93 -93s42 -93 93 -93z
M256 448c141 0 256 -115 256 -256s-115 -256 -256 -256s-256 115 -256 256s115 256 256 256zM256 -45c131 0 237 106 237 237s-106 237 -237 237s-237 -106 -237 -237s106 -237 237 -237z" />
    <glyph glyph-name="uniF130" unicode="&#xf130;" horiz-adv-x="463" 
d="M415 448c26 0 48 -21 48 -47v-149c0 -26 -22 -48 -48 -48h-3c-4 -73 -31 -135 -81 -169l35 -99h-260l28 100c-50 34 -77 96 -81 168h-6c-26 0 -47 22 -47 48v149c0 26 21 47 47 47h368zM339 -45l-25 70c-23 -12 -50 -18 -81 -18s-59 6 -82 18l-20 -70h208zM233 26
c87 0 132 55 151 122h-303c19 -67 65 -122 152 -122zM388 167c3 13 5 26 6 39h-322c1 -13 2 -26 5 -39h311zM444 252v149c0 16 -13 28 -29 28h-368c-16 0 -28 -12 -28 -28v-149c0 -16 12 -29 28 -29h5v2h361v-2h2c16 0 29 13 29 29zM57 372v19h71v-19h-71z" />
    <glyph glyph-name="uniF131" unicode="&#xf131;" horiz-adv-x="429" 
d="M382 448c26 0 47 -21 47 -47v-51v-18v-349c0 -26 -21 -47 -47 -47h-335c-26 0 -47 21 -47 47v418c0 26 21 47 47 47h335zM410 -17v349h-391v-349c0 -15 13 -28 28 -28h335c15 0 28 13 28 28zM19 350h391v51c0 15 -13 28 -28 28h-335c-15 0 -28 -13 -28 -28v-51zM214 -24
c-93 0 -168 75 -168 168s75 169 168 169s169 -76 169 -169s-76 -168 -169 -168zM214 294c-83 0 -150 -67 -150 -150s67 -150 150 -150s150 67 150 150s-67 150 -150 150zM292 144c0 35 -22 65 -53 75c5 5 10 9 14 14c34 -15 58 -49 58 -89c0 -37 -21 -70 -52 -86l-14 14
c28 12 47 40 47 72zM55 389c0 12 7 19 19 19s18 -7 18 -19s-6 -18 -18 -18s-19 6 -19 18zM120 389c0 12 7 19 19 19s18 -7 18 -19s-6 -18 -18 -18s-19 6 -19 18zM334 389c0 12 7 19 19 19s19 -7 19 -19s-7 -18 -19 -18s-19 6 -19 18z" />
    <glyph glyph-name="uniF132" unicode="&#xf132;" horiz-adv-x="428" 
d="M0 448h428v-512h-428v512zM409 429h-390v-224h151v31h91v-31h148v224zM242 205v13h-53v-13h53zM19 -45h390v231h-148h-91h-151v-231z" />
    <glyph glyph-name="uniF133" unicode="&#xf133;" horiz-adv-x="428" 
d="M0 448h428v-512h-428v512zM409 205v224h-186v-224h186zM204 429h-185v-224h185v224zM19 186v-231h185v231h-185zM223 -45h186v231h-186v-231z" />
    <glyph glyph-name="uniF134" unicode="&#xf134;" horiz-adv-x="490" 
d="M464 448c20 0 26 -15 26 -35s-6 -36 -26 -36h-7v-441h-424v441h-7c-20 0 -26 16 -26 36s6 35 26 35h438zM438 -46v0v156h-184v-46c16 -4 28 -19 28 -36c0 -20 -17 -37 -37 -37s-37 17 -37 37c0 17 12 32 28 36v46h-185v-156h387zM245 46c-10 0 -18 -8 -18 -18
s8 -19 18 -19s19 9 19 19s-9 18 -19 18zM438 128v0v249h-387v-249h387zM464 396c3 0 8 0 8 17s-5 17 -8 17h-438c-3 0 -8 0 -8 -17s5 -17 8 -17h438z" />
  </font>
</defs>
</svg>
