<?xml version="1.0" standalone="no"?>
<!DOCTYPE svg PUBLIC "-//W3C//DTD SVG 1.1//EN" "http://www.w3.org/Graphics/SVG/1.1/DTD/svg11.dtd" >
<!--
2013-9-15: Created.
-->
<svg xmlns="http://www.w3.org/2000/svg">
<metadata>
Created by FontForge 20120731 at Sun Sep 15 15:49:37 2013
 By Tyler Wanlass
Created by Tyler Wanlass with FontForge 2.0 (http://fontforge.sf.net)
</metadata>
<defs>
<font id="picto-foundry-general" horiz-adv-x="512" >
  <font-face 
    font-family="picto-foundry-general"
    font-weight="500"
    font-stretch="normal"
    units-per-em="512"
    panose-1="2 0 6 3 0 0 0 0 0 0"
    ascent="448"
    descent="-64"
    bbox="-0.75 -64.6315 512.75 448.41"
    underline-thickness="25.6"
    underline-position="-51.2"
    unicode-range="U+F100-F1AB"
  />
    <missing-glyph />
    <glyph glyph-name="uniF100" unicode="&#xf100;" 
d="M270 200h242v-22h-242v-242h-22v242h-248v22h248v248h22v-248z" />
    <glyph glyph-name="uniF101" unicode="&#xf101;" horiz-adv-x="407" 
d="M407 280c0 -25 -20 -45 -45 -46v-94c14 1 26 13 26 28v52c7 8 14 16 16 18v0c2 -5 3 -11 3 -16v-54c0 -25 -20 -46 -45 -47v-93c14 1 26 13 26 28v52c7 8 14 16 16 18v0c2 -5 3 -11 3 -16v-54c0 -25 -20 -46 -45 -47v-26c0 -26 -21 -47 -47 -47h-268c-26 0 -47 21 -47 47
v418c0 26 21 47 47 47h268c26 0 47 -21 47 -47v-20c25 -1 45 -21 45 -46v-55zM19 -17c0 -15 13 -28 28 -28h232l-109 340l-151 1v-313zM343 -17v418c0 15 -13 28 -28 28h-268c-15 0 -28 -13 -28 -28v-86l164 -2l116 -358h16c15 0 28 13 28 28zM388 335c0 15 -12 26 -26 27
v-110c14 1 26 13 26 28v55z" />
    <glyph glyph-name="uniF102" unicode="&#xf102;" 
d="M510 -40c1 -2 2 -3 2 -5c0 -5 -4 -10 -9 -10v0h-494c-3 0 -6 2 -8 5s-1 6 0 9l247 484c3 6 13 6 16 0zM24 -36h464l-232 455zM248 294c0 5 4 10 9 10s9 -5 9 -10v-187c0 -5 -4 -10 -9 -10s-9 5 -9 10v187zM229 38c0 18 10 27 28 27s27 -9 27 -27s-9 -28 -27 -28
s-28 10 -28 28z" />
    <glyph glyph-name="uniF103" unicode="&#xf103;" 
d="M408 448c64 0 104 -57 104 -104v-304c0 -74 -57 -104 -104 -104h-304c-47 0 -104 36 -104 104v304c0 47 37 104 104 104h304zM494 40v304c0 35 -31 86 -86 86h-304c-58 0 -86 -52 -86 -86v-304c0 -59 51 -86 86 -86h304c32 0 86 19 86 86zM262 358c1 -2 98 -215 135 -302
c2 -5 1 -10 -4 -12s-10 -1 -12 4c-71 148 -186 136 -191 135h-3l-60 -135c-2 -3 -4 -5 -8 -5c-1 0 -3 0 -4 1c-5 2 -7 7 -5 12l135 302c1 3 4 5 8 5h1c4 0 7 -2 8 -5zM198 202c24 0 86 -6 143 -64c-33 73 -70 157 -87 194l-59 -130h3z" />
    <glyph glyph-name="uniF104" unicode="&#xf104;" 
d="M405 448c29 0 53 -24 53 -53v-156c0 -29 -24 -53 -53 -53h-352c-29 0 -53 24 -53 53v156c0 29 24 53 53 53h352zM441 239v156c0 20 -16 35 -36 35h-352c-20 0 -35 -15 -35 -35v-156c0 -20 15 -36 35 -36h352c20 0 36 16 36 36zM476 272v90h36v-90h-36zM42 225v181h374
v-181h-374z" />
    <glyph glyph-name="uniF105" unicode="&#xf105;" 
d="M405 448c29 0 53 -24 53 -53v-156c0 -29 -24 -53 -53 -53h-352c-29 0 -53 24 -53 53v156c0 29 24 53 53 53h352zM441 239v156c0 20 -16 35 -36 35h-352c-20 0 -35 -15 -35 -35v-156c0 -20 15 -36 35 -36h352c20 0 36 16 36 36zM476 272v90h36v-90h-36zM58 406
c10 0 18 -7 18 -17v-146c0 -10 -8 -17 -18 -17s-18 7 -18 17v146c0 10 8 17 18 17z" />
    <glyph glyph-name="uniF106" unicode="&#xf106;" 
d="M316 16l-232 232l144 119c59 59 137 80 203 32c-3 13 1 27 11 37c16 16 42 16 58 0v0c16 -16 16 -42 0 -58c-10 -10 -23 -13 -36 -11c51 -66 31 -146 -29 -206zM471 427c-5 0 -10 -2 -14 -6c-5 -5 -7 -11 -6 -18l3 -14l14 -2c7 -1 12 1 17 6c4 4 6 9 6 14s-2 10 -6 14
s-9 6 -14 6zM312 -10c3 -5 5 -11 5 -17c0 -10 -4 -19 -11 -26c-11 -11 -27 -14 -41 -8c-4 2 -8 5 -11 8l-57 56c-11 -21 -36 -31 -58 -21c-23 10 -34 36 -24 59c4 10 12 18 21 23l-125 125c-14 14 -14 38 0 52c11 11 26 14 40 8c1 -1 4 -1 5 -2z" />
    <glyph glyph-name="uniF107" unicode="&#xf107;" 
d="M243 353l-145 -116l-15 14l145 116c59 59 137 80 203 32c-2 13 1 27 11 37c16 16 42 16 58 0v0c16 -16 16 -42 0 -58c-10 -10 -23 -14 -36 -12c51 -65 31 -145 -29 -205l-115 -145l-15 14l116 146c51 52 72 120 27 178l-13 16l-17 12c-59 43 -123 23 -175 -29zM471 427
c-5 0 -10 -2 -14 -6c-5 -5 -7 -11 -6 -18l3 -14l14 -2c7 -1 12 1 17 6c8 8 8 20 0 28v0c-4 4 -9 6 -14 6zM317 -27c0 -10 -4 -19 -11 -26c-11 -11 -27 -14 -41 -8c-4 2 -8 5 -11 8l-57 56c-11 -21 -36 -30 -58 -21c-23 10 -34 36 -24 59c4 10 12 18 21 23l-125 125
c-14 14 -14 38 0 52c11 11 26 14 40 8c4 -2 9 -5 12 -8l243 -242c7 -7 11 -16 11 -26zM268 -39c7 -7 17 -7 24 0c3 3 5 7 5 12s-2 9 -5 12l-243 243c-2 2 -3 2 -5 3c-7 3 -14 1 -19 -4c-7 -7 -7 -17 0 -24z" />
    <glyph glyph-name="uniF108" unicode="&#xf108;" 
d="M512 402c0 -24 -18 -44 -41 -46c-24 -82 -50 -188 -54 -201c-12 -42 -35 -51 -53 -51h-225c-19 0 -42 9 -53 52l-46 200c-22 3 -40 23 -40 46c0 26 20 46 46 46h420c26 0 46 -20 46 -46zM400 160c4 12 29 114 52 195h-393l44 -195c9 -38 29 -38 36 -38h225
c17 0 29 12 36 38zM466 373c16 0 28 13 28 29s-12 28 -28 28h-420c-16 0 -28 -12 -28 -28s12 -29 28 -29h420z" />
    <glyph glyph-name="uniF109" unicode="&#xf109;" horiz-adv-x="296" 
d="M289 101c4 -3 7 -7 7 -12s-2 -9 -5 -13l-131 -135c-3 -3 -7 -5 -12 -5c-2 0 -5 0 -7 1c-7 3 -10 9 -10 16v203l-103 -82c-7 -6 -18 -5 -24 3c-6 7 -4 18 3 24l113 91l-113 91c-7 6 -9 17 -3 24s18 9 25 3l102 -82v203c0 7 4 13 11 16s14 1 19 -4l129 -135
c3 -4 5 -8 5 -13s-3 -9 -7 -12l-112 -91zM165 388v-159l87 69zM165 -4l88 90l-88 70v-160z" />
    <glyph glyph-name="uniF10A" unicode="&#xf10a;" horiz-adv-x="289" 
d="M285 92c2 -2 4 -4 4 -7s-1 -5 -3 -7l-135 -139c-2 -2 -4 -3 -7 -3c-1 0 -2 1 -3 1c-4 1 -6 5 -6 9v227l-119 -96c-4 -3 -11 -2 -14 2s-2 10 2 13l125 100l-125 100c-4 3 -4 10 -1 14s9 4 13 1l119 -95v226c0 4 2 8 6 9s7 1 10 -2l134 -139c2 -2 3 -4 3 -7s-2 -5 -4 -7
l-124 -100zM154 415v-203l110 88zM154 -31l111 115l-111 88v-203z" />
    <glyph glyph-name="uniF10B" unicode="&#xf10b;" 
d="M464 448c27 0 48 -21 48 -48v-354c0 -27 -21 -48 -48 -48h-169c-11 0 -21 -13 -29 -26l-2 -28l-8 2l-8 -2l-2 28c-8 13 -18 26 -29 26h-169c-27 0 -48 21 -48 48v354c0 27 21 48 48 48h169c16 0 30 -8 39 -20c9 12 23 20 39 20h169zM246 4v396c0 16 -13 29 -29 29h-169
c-16 0 -29 -13 -29 -29v-354c0 -16 13 -29 29 -29h169c11 0 21 -5 29 -13zM493 46v354c0 16 -13 29 -29 29h-169c-16 0 -29 -13 -29 -29v-396c8 8 18 13 29 13h169c16 0 29 13 29 29z" />
    <glyph glyph-name="uniF10C" unicode="&#xf10c;" 
d="M465 369c26 0 47 -21 47 -47v-275c0 -26 -21 -47 -47 -47h-418c-26 0 -47 21 -47 47v275c0 26 21 47 47 47h88v23c0 31 25 56 56 56h130c31 0 55 -25 55 -56v-23h89zM154 392v-23h204v23c0 21 -16 37 -37 37h-130c-21 0 -37 -16 -37 -37zM493 47v275c0 15 -13 28 -28 28
h-418c-15 0 -28 -13 -28 -28v-275c0 -15 13 -28 28 -28h418c15 0 28 13 28 28zM86 37v293h19v-293h-19zM412 37v293h18v-293h-18zM66 381v19h41v-19h-41zM410 381v19h41v-19h-41z" />
    <glyph glyph-name="uniF10D" unicode="&#xf10d;" 
d="M465 369c26 0 47 -21 47 -47v-275c0 -26 -21 -47 -47 -47h-418c-26 0 -47 21 -47 47v275c0 26 21 47 47 47h88v23c0 31 25 56 56 56h130c31 0 55 -25 55 -56v-23h89zM154 392v-23h204v23c0 21 -16 37 -37 37h-130c-21 0 -37 -16 -37 -37zM493 47v191h-201v-17
c0 -19 -16 -34 -35 -34s-34 15 -34 34v17h-204v-191c0 -15 13 -28 28 -28h418c15 0 28 13 28 28zM241 221c0 -9 7 -16 16 -16s16 7 16 16v43c0 9 -7 16 -16 16s-16 -7 -16 -16v-43zM493 257v65c0 15 -13 28 -28 28h-418c-15 0 -28 -13 -28 -28v-65h204v7c0 19 15 35 34 35
s35 -16 35 -35v-7h201z" />
    <glyph glyph-name="uniF10E" unicode="&#xf10e;" 
d="M458 448c30 0 54 -24 54 -54v-324c0 -30 -24 -54 -54 -54h-404c-30 0 -54 24 -54 54v324c0 30 24 54 54 54h404zM54 430c-20 0 -36 -16 -36 -36v-81h476v81c0 20 -16 36 -36 36h-404zM458 34c20 0 36 16 36 36v225h-476v-225c0 -20 16 -36 36 -36h404zM85 335
c-20 0 -36 16 -36 36s16 36 36 36s36 -16 36 -36s-16 -36 -36 -36zM85 389c-10 0 -18 -8 -18 -18s8 -18 18 -18s18 8 18 18s-8 18 -18 18zM175 335c-20 0 -36 16 -36 36s16 36 36 36s36 -16 36 -36s-16 -36 -36 -36zM175 389c-10 0 -18 -8 -18 -18s8 -18 18 -18s18 8 18 18
s-8 18 -18 18zM265 335c-20 0 -36 16 -36 36s16 36 36 36s36 -16 36 -36s-16 -36 -36 -36zM265 389c-10 0 -18 -8 -18 -18s8 -18 18 -18s18 8 18 18s-8 18 -18 18zM375 263c3 4 8 3 12 0s3 -9 0 -13l-161 -167c-2 -2 -5 -3 -7 -3s-4 1 -6 2l-92 81c-4 3 -4 9 -1 13s9 4 13 1
l86 -75z" />
    <glyph glyph-name="uniF10F" unicode="&#xf10f;" 
d="M458 448c30 0 54 -24 54 -54v-324c0 -30 -24 -54 -54 -54h-404c-30 0 -54 24 -54 54v324c0 30 24 54 54 54h404zM54 430c-20 0 -36 -16 -36 -36v-81h476v81c0 20 -16 36 -36 36h-404zM458 34c20 0 36 16 36 36v225h-476v-225c0 -20 16 -36 36 -36h404zM85 335
c-20 0 -36 16 -36 36s16 36 36 36s36 -16 36 -36s-16 -36 -36 -36zM85 389c-10 0 -18 -8 -18 -18s8 -18 18 -18s18 8 18 18s-8 18 -18 18zM175 335c-20 0 -36 16 -36 36s16 36 36 36s36 -16 36 -36s-16 -36 -36 -36zM175 389c-10 0 -18 -8 -18 -18s8 -18 18 -18s18 8 18 18
s-8 18 -18 18zM265 335c-20 0 -36 16 -36 36s16 36 36 36s36 -16 36 -36s-16 -36 -36 -36zM265 389c-10 0 -18 -8 -18 -18s8 -18 18 -18s18 8 18 18s-8 18 -18 18zM289 232c24 0 46 -24 46 -51c0 -26 -24 -47 -45 -65c-14 -13 -27 -25 -28 -34c0 -2 -3 -5 -5 -5v0
c-3 0 -5 2 -5 5c0 9 -14 22 -29 35c-21 19 -44 39 -44 64s15 50 42 50c12 0 23 -4 35 -14c12 12 25 15 33 15z" />
    <glyph glyph-name="uniF110" unicode="&#xf110;" 
d="M245 161l-76 7l145 65l-64 -145zM458 448c30 0 54 -24 54 -54v-324c0 -30 -24 -54 -54 -54h-404c-30 0 -54 24 -54 54v324c0 30 24 54 54 54h404zM54 430c-20 0 -36 -16 -36 -36v-81h476v81c0 20 -16 36 -36 36h-404zM458 34c20 0 36 16 36 36v225h-476v-225
c0 -20 16 -36 36 -36h404zM85 335c-20 0 -36 16 -36 36s16 36 36 36s36 -16 36 -36s-16 -36 -36 -36zM85 389c-10 0 -18 -8 -18 -18s8 -18 18 -18s18 8 18 18s-8 18 -18 18zM175 335c-20 0 -36 16 -36 36s16 36 36 36s36 -16 36 -36s-16 -36 -36 -36zM175 389
c-10 0 -18 -8 -18 -18s8 -18 18 -18s18 8 18 18s-8 18 -18 18zM265 335c-20 0 -36 16 -36 36s16 36 36 36s36 -16 36 -36s-16 -36 -36 -36zM265 389c-10 0 -18 -8 -18 -18s8 -18 18 -18s18 8 18 18s-8 18 -18 18z" />
    <glyph glyph-name="uniF111" unicode="&#xf111;" 
d="M274 196l60 -3l-49 -40l18 -57l-52 32l-51 -32l18 57l-49 40l60 3l22 57zM458 448c30 0 54 -24 54 -54v-324c0 -30 -24 -54 -54 -54h-404c-30 0 -54 24 -54 54v324c0 30 24 54 54 54h404zM54 430c-20 0 -36 -16 -36 -36v-81h476v81c0 20 -16 36 -36 36h-404zM458 34
c20 0 36 16 36 36v225h-476v-225c0 -20 16 -36 36 -36h404zM85 335c-20 0 -36 16 -36 36s16 36 36 36s36 -16 36 -36s-16 -36 -36 -36zM85 389c-10 0 -18 -8 -18 -18s8 -18 18 -18s18 8 18 18s-8 18 -18 18zM175 335c-20 0 -36 16 -36 36s16 36 36 36s36 -16 36 -36
s-16 -36 -36 -36zM175 389c-10 0 -18 -8 -18 -18s8 -18 18 -18s18 8 18 18s-8 18 -18 18zM265 335c-20 0 -36 16 -36 36s16 36 36 36s36 -16 36 -36s-16 -36 -36 -36zM265 389c-10 0 -18 -8 -18 -18s8 -18 18 -18s18 8 18 18s-8 18 -18 18z" />
    <glyph glyph-name="uniF112" unicode="&#xf112;" 
d="M458 448c30 0 54 -24 54 -54v-324c0 -30 -24 -54 -54 -54h-404c-30 0 -54 24 -54 54v324c0 30 24 54 54 54h404zM54 430c-20 0 -36 -16 -36 -36v-81h476v81c0 20 -16 36 -36 36h-404zM458 34c20 0 36 16 36 36v225h-476v-225c0 -20 16 -36 36 -36h404zM85 335
c-20 0 -36 16 -36 36s16 36 36 36s36 -16 36 -36s-16 -36 -36 -36zM85 389c-10 0 -18 -8 -18 -18s8 -18 18 -18s18 8 18 18s-8 18 -18 18zM175 335c-20 0 -36 16 -36 36s16 36 36 36s36 -16 36 -36s-16 -36 -36 -36zM175 389c-10 0 -18 -8 -18 -18s8 -18 18 -18s18 8 18 18
s-8 18 -18 18zM265 335c-20 0 -36 16 -36 36s16 36 36 36s36 -16 36 -36s-16 -36 -36 -36zM265 389c-10 0 -18 -8 -18 -18s8 -18 18 -18s18 8 18 18s-8 18 -18 18zM85 223v18h339v-18h-339zM85 169v18h339v-18h-339zM85 115v18h204v-18h-204z" />
    <glyph glyph-name="uniF113" unicode="&#xf113;" 
d="M71 15v122h71v-122h-71zM368 15v122h72v-122h-72zM368 258v122h72v-122h-72zM219 258v122h71v-122h-71zM71 258v122h71v-122h-71zM503 448c5 0 9 -4 9 -9v-494c0 -5 -4 -9 -9 -9h-494c-5 0 -9 4 -9 9v494c0 5 4 9 9 9h494zM494 430h-476v-229h476v229zM296 -46v174h-81
v-174h81zM314 -46h180v229h-476v-229h180v183c0 5 3 9 8 9h99c5 0 9 -4 9 -9v-183z" />
    <glyph glyph-name="uniF114" unicode="&#xf114;" 
d="M0 419c0 19 10 29 29 29s28 -10 28 -29s-9 -28 -28 -28s-29 9 -29 28zM0 285c0 19 10 29 29 29s28 -10 28 -29s-9 -28 -28 -28s-29 9 -29 28zM0 151c0 19 10 29 29 29s28 -10 28 -29s-9 -28 -28 -28s-29 9 -29 28zM0 20c0 19 10 29 29 29s28 -10 28 -29s-9 -28 -28 -28
s-29 9 -29 28zM144 410v19h368v-19h-368zM144 276v19h368v-19h-368zM144 142v19h368v-19h-368zM144 11v19h368v-19h-368z" />
    <glyph glyph-name="uniF115" unicode="&#xf115;" 
d="M458 448c30 0 54 -24 54 -54v-404c0 -30 -24 -54 -54 -54h-404c-30 0 -54 24 -54 54v404c0 30 24 54 54 54h404zM494 -10v301h-476v-301c0 -20 16 -36 36 -36h404c20 0 36 16 36 36zM494 309v85c0 20 -16 36 -36 36h-404c-20 0 -36 -16 -36 -36v-85h476zM131 366
c0 12 6 18 18 18s18 -6 18 -18s-6 -18 -18 -18s-18 6 -18 18zM347 366c0 12 6 18 18 18s18 -6 18 -18s-6 -18 -18 -18s-18 6 -18 18zM309 14v-18h-98v18h38v194l-23 -23l-13 12l54 54v-237h42z" />
    <glyph glyph-name="uniF116" unicode="&#xf116;" 
d="M458 448c30 0 54 -24 54 -54v-404c0 -30 -24 -54 -54 -54h-404c-30 0 -54 24 -54 54v404c0 30 24 54 54 54h404zM215 129h82v75h-82v-75zM297 114h-82v-75h82v75zM200 129v75h-83v-75h83zM312 204v-75h83v75h-83zM312 218h83v73h-83v-73zM297 218v73h-82v-73h82zM200 218
v73h-83v-73h83zM103 218v73h-85v-73h85zM103 204h-85v-75h85v75zM103 114h-85v-75h85v75zM117 114v-75h83v75h-83zM200 24h-83v-70h83v70zM215 24v-70h82v70h-82zM312 24v-70h83v70h-83zM312 39h83v75h-83v-75zM409 114v-75h85v75h-85zM409 129h85v75h-85v-75zM409 218h85
v73h-85v-73zM54 430c-20 0 -36 -16 -36 -36v-85h476v85c0 20 -16 36 -36 36h-404zM18 -10c0 -20 16 -36 36 -36h49v70h-85v-34zM458 -46c20 0 36 16 36 36v34h-85v-70h49zM131 366c0 12 6 18 18 18s18 -6 18 -18s-6 -18 -18 -18s-18 6 -18 18zM347 366c0 12 6 18 18 18
s18 -6 18 -18s-6 -18 -18 -18s-18 6 -18 18z" />
    <glyph glyph-name="uniF117" unicode="&#xf117;" 
d="M458 448c30 0 54 -24 54 -54v-226c0 -30 -24 -55 -54 -55h-331c-5 0 -17 1 -125 163c-2 3 -2 7 0 10c109 162 119 162 125 162h331zM494 168v226c0 20 -16 36 -36 36h-329c-12 -9 -63 -81 -109 -149c46 -68 97 -141 109 -150h329c20 0 36 17 36 37zM369 362l12 -12
l-70 -71l70 -70l-12 -12l-70 70l-71 -70l-12 12l70 70l-70 71l12 12l71 -70z" />
    <glyph glyph-name="uniF118" unicode="&#xf118;" horiz-adv-x="490" 
d="M222 448c5 0 9 -4 9 -9v-223c0 -5 -4 -9 -9 -9h-213c-5 0 -9 4 -9 9v223c0 5 4 9 9 9h213zM213 225v205h-195v-205h195zM222 177c5 0 9 -4 9 -9v-223c0 -5 -4 -9 -9 -9h-213c-5 0 -9 4 -9 9v223c0 5 4 9 9 9h213zM213 -46v205h-195v-205h195zM481 177c5 0 9 -4 9 -9v-223
c0 -5 -4 -9 -9 -9h-213c-5 0 -9 4 -9 9v223c0 5 4 9 9 9h213zM472 -46v0v205h-195v-205h195zM481 448c5 0 9 -4 9 -9v-223c0 -5 -4 -9 -9 -9h-213c-5 0 -9 4 -9 9v223c0 5 4 9 9 9h213zM472 225v0v205h-195v-205h195z" />
    <glyph glyph-name="uniF119" unicode="&#xf119;" 
d="M507 443c7 -7 7 -18 0 -25l-303 -314c-4 -4 -8 -6 -13 -6c-4 0 -9 2 -12 5l-173 151c-7 7 -9 19 -2 26s19 8 26 1l160 -140l291 302c7 7 19 7 26 0z" />
    <glyph glyph-name="uniF11A" unicode="&#xf11a;" 
d="M509 445c4 -4 4 -9 0 -13l-313 -325c-2 -2 -5 -3 -7 -3s-4 1 -6 3l-180 157c-4 3 -4 9 -1 13s9 4 13 1l173 -152l308 319c4 4 9 4 13 0z" />
    <glyph glyph-name="uniF11B" unicode="&#xf11b;" 
d="M202 192h260h41v-137h-41h-260h-202v137h202zM211 173v-99h242v99h-242zM18 173v-99h175v99h-175zM495 226l-13 -13c-1 1 -36 36 -2 114c29 67 1 111 1 111l15 10c1 -2 34 -52 1 -128c-28 -65 -3 -93 -2 -94zM431 226l-13 -13c-1 1 -36 36 -2 114c29 67 1 111 1 111
l15 10c1 -2 34 -52 1 -128c-28 -65 -3 -93 -2 -94z" />
    <glyph glyph-name="uniF11C" unicode="&#xf11c;" 
d="M256 448c141 0 256 -115 256 -256s-115 -256 -256 -256s-256 115 -256 256s115 256 256 256zM256 -46c131 0 238 107 238 238s-107 238 -238 238s-238 -107 -238 -238s107 -238 238 -238zM369 290l-99 -99l101 -102l-12 -13l-102 102l-102 -102l-12 13l101 102l-101 101
l13 13l101 -101l99 98z" />
    <glyph glyph-name="uniF11D" unicode="&#xf11d;" 
d="M444 275c38 -1 68 -30 68 -67s-31 -68 -69 -68h-1h-151h-2h-3h-21v-123l47 47l13 -13l-69 -70l-69 70l13 13l46 -45v121h-97h-2h-3h-99h-1c-24 0 -44 19 -44 43c0 21 16 39 36 43c-2 8 -3 17 -3 26c0 62 38 112 114 112h2c26 50 79 84 140 84c99 0 156 -69 156 -154
c0 -6 0 -13 -1 -19zM444 158c27 1 49 23 49 50s-22 49 -49 49h-21l2 21c1 5 2 10 2 16c0 81 -55 135 -138 135c-52 0 -100 -28 -124 -74l-5 -10h-11h-3c-59 0 -95 -35 -95 -93c0 -7 1 -15 3 -22l5 -19l-20 -4c-12 -2 -20 -12 -20 -24c0 -13 10 -25 24 -25c1 0 1 1 2 1h99
c1 0 2 -1 3 -1s1 1 2 1h97v139h19v-139h21c1 0 2 -1 3 -1s1 1 2 1h151c1 0 1 -1 2 -1z" />
    <glyph glyph-name="uniF11E" unicode="&#xf11e;" 
d="M444 275c38 -1 68 -30 68 -67s-31 -68 -69 -68h-1h-151h-2h-3h-21v-140h-19v140h-97h-2h-3h-99h-1c-24 0 -44 19 -44 43c0 21 16 39 36 43c-2 8 -3 17 -3 26c0 62 38 112 114 112h2c26 50 79 84 140 84c99 0 156 -69 156 -154c0 -6 0 -13 -1 -19zM444 158
c27 1 49 23 49 50s-22 49 -49 49h-21l2 21c1 5 2 10 2 16c0 81 -55 135 -138 135c-52 0 -100 -28 -124 -74l-5 -10h-11h-3c-59 0 -95 -35 -95 -93c0 -7 1 -15 3 -22l5 -19l-20 -4c-12 -2 -20 -12 -20 -24c0 -13 10 -25 24 -25c1 0 1 1 2 1h99c1 0 2 -1 3 -1s1 1 2 1h97v120
l-46 -45l-13 13l69 70l69 -70l-13 -13l-47 47v-122h21c1 0 2 -1 3 -1s1 1 2 1h151c1 0 1 -1 2 -1z" />
    <glyph glyph-name="uniF11F" unicode="&#xf11f;" horiz-adv-x="492" 
d="M210 299c26 0 47 -22 47 -48v-130c0 -26 -21 -47 -47 -47h-131c-26 0 -47 21 -47 47v130c0 26 21 48 47 48h131zM230 448c15 0 27 -12 27 -27v-74c0 -15 -12 -26 -27 -26h-73c-15 0 -27 11 -27 26v74c0 15 12 27 27 27h73zM315 138c-18 0 -33 15 -33 33v92
c0 18 15 33 33 33h91c18 0 34 -15 34 -33v-92c0 -18 -16 -33 -34 -33h-91zM332 106c8 0 14 -5 14 -13v-38c0 -8 -6 -13 -14 -13h-37c-8 0 -13 5 -13 13v38c0 8 5 13 13 13h37zM234 49c9 0 17 -7 17 -16v-47c0 -9 -8 -16 -17 -16h-46c-9 0 -17 7 -17 16v47c0 9 8 16 17 16h46
zM425 321c-9 0 -16 8 -16 17v46c0 9 7 17 16 17h47c9 0 16 -8 16 -17v-46c0 -9 -7 -17 -16 -17h-47zM469 106c13 0 23 -11 23 -24v-65c0 -13 -10 -24 -23 -24h-66c-13 0 -23 11 -23 24v65c0 13 10 24 23 24h66zM12 321c-7 0 -12 5 -12 12v33c0 7 5 13 12 13h34
c7 0 12 -6 12 -13v-33c0 -7 -5 -12 -12 -12h-34zM46 56c7 0 12 -5 12 -12v-34c0 -7 -5 -12 -12 -12h-34c-7 0 -12 5 -12 12v34c0 7 5 12 12 12h34zM298 323c-7 0 -13 6 -13 13v33c0 7 6 13 13 13h33c7 0 12 -6 12 -13v-33c0 -7 -5 -13 -12 -13h-33zM485 -30c4 0 7 -4 7 -8
v-19c0 -4 -3 -7 -7 -7h-19c-4 0 -7 3 -7 7v19c0 4 3 8 7 8h19zM134 8c4 0 7 -4 7 -8v-19c0 -4 -3 -7 -7 -7h-19c-4 0 -7 3 -7 7v19c0 4 3 8 7 8h19z" />
    <glyph glyph-name="uniF120" unicode="&#xf120;" horiz-adv-x="506" 
d="M253 429c-129 0 -234 -96 -234 -213s105 -212 234 -212c6 0 13 0 20 1l10 1l7 -9c12 -16 30 -28 52 -36c10 -4 21 -6 31 -6c3 0 6 1 8 1c-5 5 -11 11 -15 19c-5 10 -9 20 -13 30l-6 16l16 8c76 37 123 109 123 187c0 117 -104 213 -233 213zM253 448v0
c140 0 253 -104 253 -232c0 -89 -54 -165 -134 -204c3 -8 7 -18 12 -28c12 -24 41 -34 41 -34s-20 -14 -52 -14c-11 0 -24 2 -38 7c-29 11 -49 27 -61 43c-7 -1 -14 -1 -21 -1c-140 0 -253 103 -253 231s113 232 253 232z" />
    <glyph glyph-name="uniF121" unicode="&#xf121;" 
d="M458 448c30 0 54 -24 54 -54v-296c0 -30 -24 -54 -54 -54h-40l-96 -101c-2 -2 -4 -3 -6 -3c-1 0 -3 0 -4 1c-3 2 -5 5 -5 9l11 94h-264c-30 0 -54 24 -54 54v296c0 30 24 54 54 54h404zM494 98v296c0 20 -16 36 -36 36h-404c-20 0 -36 -16 -36 -36v-296
c0 -20 16 -36 36 -36h274c3 0 4 -1 6 -3s3 -4 3 -7l-9 -77l80 84c2 2 4 3 6 3h44c20 0 36 16 36 36z" />
    <glyph glyph-name="uniF122" unicode="&#xf122;" horiz-adv-x="506" 
d="M506 216c0 -89 -54 -165 -134 -204c3 -8 7 -18 12 -28c12 -24 41 -34 41 -34s-20 -14 -52 -14c-11 0 -24 2 -38 7c-29 11 -49 27 -61 43c-7 -1 -14 -1 -21 -1c-140 0 -253 103 -253 231s113 232 253 232s253 -104 253 -232zM363 29c76 37 123 109 123 187
c0 117 -104 213 -233 213s-234 -96 -234 -213s105 -212 234 -212c6 0 13 0 20 1l10 1l7 -9c12 -16 30 -28 52 -36c10 -4 21 -6 31 -6c3 0 6 1 8 1c-5 5 -11 11 -15 19c-5 10 -9 20 -13 30l-6 16zM262 325v-103h102v-18h-102v-103h-19v103h-102v18h102v103h19z" />
    <glyph glyph-name="uniF123" unicode="&#xf123;" horiz-adv-x="506" 
d="M506 215c0 -84 -49 -159 -127 -201c2 -6 5 -12 8 -18c10 -19 35 -28 35 -28l17 -6l-15 -10c-1 -1 -22 -16 -55 -16v0c-13 0 -27 2 -40 7c-25 9 -45 22 -60 40h-16c-139 0 -253 104 -253 232s114 233 253 233s253 -105 253 -233z" />
    <glyph glyph-name="uniF124" unicode="&#xf124;" 
d="M458 448c30 0 54 -24 54 -54v-296c0 -30 -24 -54 -54 -54h-40l-96 -101c-2 -2 -4 -3 -6 -3c-1 0 -3 0 -4 1c-4 2 -5 5 -5 9l11 94h-264c-30 0 -54 24 -54 54v296c0 30 24 54 54 54h404z" />
    <glyph glyph-name="uniF125" unicode="&#xf125;" 
d="M458 448c30 0 54 -24 54 -54v-296c0 -30 -24 -54 -54 -54h-40l-96 -101c-2 -2 -4 -3 -6 -3c-1 0 -3 0 -4 1c-4 2 -5 5 -5 9l11 94h-264c-30 0 -54 24 -54 54v296c0 30 24 54 54 54h404zM494 98v296c0 20 -16 36 -36 36h-404c-20 0 -36 -16 -36 -36v-296
c0 -20 16 -36 36 -36h274c3 0 4 -1 6 -3s3 -4 3 -7l-9 -77l80 84c2 2 4 3 6 3h44c20 0 36 16 36 36zM307 340c31 0 57 -31 57 -64c0 -59 -101 -101 -103 -138c0 36 -102 81 -102 138c0 33 21 63 53 63c15 0 31 -6 49 -22c15 17 31 23 46 23zM292 203c26 22 54 48 54 73
c0 24 -18 46 -39 46c-11 0 -22 -6 -32 -17l-12 -14l-14 12c-13 12 -26 18 -37 18c-12 0 -20 -6 -25 -12c-7 -9 -10 -21 -10 -33c0 -24 29 -50 54 -72c12 -10 22 -19 31 -29c8 9 19 18 30 28z" />
    <glyph glyph-name="uniF126" unicode="&#xf126;" horiz-adv-x="506" 
d="M506 216c0 -89 -54 -165 -134 -204c3 -8 7 -18 12 -28c12 -24 41 -34 41 -34s-20 -14 -52 -14c-11 0 -24 2 -38 7c-29 11 -49 27 -61 43c-7 -1 -14 -1 -21 -1c-140 0 -253 103 -253 231s113 232 253 232s253 -104 253 -232zM363 29c76 37 123 109 123 187
c0 117 -104 213 -233 213s-234 -96 -234 -213s105 -212 234 -212c6 0 13 0 20 1l10 1l7 -9c12 -16 30 -28 52 -36c10 -4 21 -6 31 -6c3 0 6 1 8 1c-5 5 -11 11 -15 19c-5 10 -9 20 -13 30l-6 16zM312 337c43 0 81 -41 81 -89c0 -46 -43 -83 -80 -116
c-26 -22 -49 -44 -50 -61c0 -4 -5 -7 -9 -7v0c-5 0 -8 3 -8 8c0 16 -25 38 -51 61c-37 33 -79 71 -79 115s28 88 75 88c21 0 42 -8 63 -25c22 22 43 26 58 26z" />
    <glyph glyph-name="uniF127" unicode="&#xf127;" horiz-adv-x="506" 
d="M506 216c0 -89 -54 -165 -134 -204c3 -8 7 -18 12 -28c12 -24 41 -34 41 -34s-20 -14 -52 -14c-11 0 -24 2 -38 7c-29 11 -49 27 -61 43c-7 -1 -14 -1 -21 -1c-140 0 -253 103 -253 231s113 232 253 232s253 -104 253 -232zM363 29c76 37 123 109 123 187
c0 117 -104 213 -233 213s-234 -96 -234 -213s105 -212 234 -212c6 0 13 0 20 1l10 1l7 -9c12 -16 30 -28 52 -36c10 -4 21 -6 31 -6c3 0 6 1 8 1c-5 5 -11 11 -15 19c-5 10 -9 20 -13 30l-6 16zM311 321c38 0 70 -38 70 -79c0 -73 -124 -125 -126 -170
c0 44 -127 100 -127 170c0 40 27 78 66 78c18 0 39 -8 61 -28c18 20 38 29 56 29zM294 150c32 28 68 59 68 92c0 31 -24 60 -51 60c-14 0 -29 -7 -42 -22l-13 -14l-14 12c-17 15 -33 23 -48 23c-16 0 -27 -8 -33 -16c-9 -11 -14 -27 -14 -43c0 -31 36 -62 68 -90
c15 -14 29 -26 40 -39c10 12 24 24 39 37z" />
    <glyph glyph-name="uniF128" unicode="&#xf128;" horiz-adv-x="506" 
d="M506 216c0 -89 -54 -165 -134 -204c3 -8 7 -18 12 -28c12 -24 41 -34 41 -34s-20 -14 -52 -14c-11 0 -24 2 -38 7c-29 11 -49 27 -61 43c-7 -1 -14 -1 -21 -1c-140 0 -253 103 -253 231s113 232 253 232s253 -104 253 -232zM363 29c76 37 123 109 123 187
c0 117 -104 213 -233 213s-234 -96 -234 -213s105 -212 234 -212c6 0 13 0 20 1l10 1l7 -9c12 -16 30 -28 52 -36c10 -4 21 -6 31 -6c3 0 6 1 8 1c-5 5 -11 11 -15 19c-5 10 -9 20 -13 30l-6 16zM397 265c2 0 3 -2 4 -4s1 -5 -1 -6l-82 -66l29 -96c1 -2 0 -4 -2 -5
c-1 -1 -2 -1 -3 -1s-2 -1 -3 0l-86 54l-86 -54c-2 -1 -4 0 -6 1s-3 3 -2 5l29 96l-82 66c-2 1 -2 4 -1 6s2 4 4 4l102 5l37 96c2 4 8 4 10 0l37 -96z" />
    <glyph glyph-name="uniF129" unicode="&#xf129;" horiz-adv-x="506" 
d="M506 216c0 -89 -54 -165 -134 -204c3 -8 7 -18 12 -28c12 -24 41 -34 41 -34s-20 -14 -52 -14c-11 0 -24 2 -38 7c-29 11 -49 27 -61 43c-7 -1 -14 -1 -21 -1c-140 0 -253 103 -253 231s113 232 253 232s253 -104 253 -232zM363 29c76 37 123 109 123 187
c0 117 -104 213 -233 213s-234 -96 -234 -213s105 -212 234 -212c6 0 13 0 20 1l10 1l7 -9c12 -16 30 -28 52 -36c10 -4 21 -6 31 -6c3 0 6 1 8 1c-5 5 -11 11 -15 19c-5 10 -9 20 -13 30l-6 16zM253 327l-25 -64l-4 -11l-12 -1l-66 -3l54 -44l10 -8l-4 -12l-18 -62l55 35
l10 6l10 -6l56 -35l-19 62l-4 12l10 8l55 44l-67 3l-12 1l-4 11zM253 369v0c2 0 4 -1 5 -3l37 -96l102 -5c2 0 3 -2 4 -4s1 -5 -1 -6l-82 -66l29 -96c1 -2 0 -4 -2 -5c-1 -1 -2 -1 -3 -1s-2 -1 -3 0l-86 54l-86 -54c-1 -1 -2 0 -3 0s-2 0 -3 1c-2 1 -3 3 -2 5l29 96l-82 66
c-2 1 -2 4 -1 6s2 4 4 4l102 5l37 96c1 2 3 3 5 3z" />
    <glyph glyph-name="uniF12A" unicode="&#xf12a;" 
d="M458 448c30 0 54 -24 54 -54v-296c0 -30 -24 -54 -54 -54h-40l-96 -101c-2 -2 -4 -3 -6 -3c-1 0 -3 0 -4 1c-4 2 -5 5 -5 9l11 94h-264c-30 0 -54 24 -54 54v296c0 30 24 54 54 54h404zM494 98v296c0 20 -16 36 -36 36h-404c-20 0 -36 -16 -36 -36v-296
c0 -20 16 -36 36 -36h274c3 0 4 -1 6 -3s3 -4 3 -7l-9 -77l80 84c2 2 4 3 6 3h44c20 0 36 16 36 36zM130 299c28 0 51 -24 51 -52s-23 -51 -51 -51s-51 23 -51 51s23 52 51 52zM130 214c18 0 33 15 33 33s-15 34 -33 34s-33 -16 -33 -34s15 -33 33 -33zM256 299
c28 0 51 -24 51 -52s-23 -51 -51 -51s-51 23 -51 51s23 52 51 52zM256 214c18 0 33 15 33 33s-15 34 -33 34s-33 -16 -33 -34s15 -33 33 -33zM382 299c28 0 51 -24 51 -52s-23 -51 -51 -51s-51 23 -51 51s23 52 51 52zM382 214c18 0 33 15 33 33s-15 34 -33 34
s-33 -16 -33 -34s15 -33 33 -33z" />
    <glyph glyph-name="uniF12B" unicode="&#xf12b;" 
d="M504 440c12 -12 11 -35 -4 -50l-14 -13l-14 14l14 13c6 6 6 14 1 19s-13 5 -19 -1l-13 -14l-14 14l13 14c15 15 38 16 50 4zM162 143l246 246v0l17 17l13 -14v0l18 -18v0l14 -13l-263 -263c-15 -15 -82 -37 -82 -37s22 67 37 82zM439 358l-17 17l-246 -246
c-6 -6 -18 -35 -18 -35s29 12 35 18zM468 -2v262h20v-262c0 -33 -28 -61 -61 -61h-367c-33 0 -60 28 -60 61v367c0 33 27 60 60 60h262v-19h-262c-23 0 -40 -18 -40 -41v-367c0 -23 17 -41 40 -41h367c23 0 41 18 41 41z" />
    <glyph glyph-name="uniF12C" unicode="&#xf12c;" horiz-adv-x="227" 
d="M125 343c57 -5 102 -48 102 -100v-206c0 -56 -51 -101 -114 -101s-113 45 -113 101v206c0 53 47 98 106 101v104h19v-105zM208 37v0v206c0 45 -43 82 -95 82s-94 -37 -94 -82v-206c0 -45 42 -82 94 -82s95 37 95 82zM94 215c0 13 6 20 19 20s20 -7 20 -20s-7 -19 -20 -19
s-19 6 -19 19z" />
    <glyph glyph-name="uniF12D" unicode="&#xf12d;" 
d="M445 99c38 -4 67 -36 67 -75c0 -42 -34 -76 -76 -76s-75 34 -75 76c0 39 29 70 66 75c-1 31 -10 54 -26 69c-32 31 -94 30 -153 28c-62 -2 -121 -4 -155 29c-17 17 -25 40 -26 72c-37 4 -67 36 -67 75c0 42 34 76 76 76s75 -34 75 -76c0 -39 -29 -70 -66 -75
c1 -27 7 -46 21 -59c29 -28 84 -26 142 -24c63 2 128 4 166 -33c20 -19 30 -46 31 -82zM18 372c0 -32 26 -57 58 -57s57 25 57 57s-25 58 -57 58s-58 -26 -58 -58zM436 -34c32 0 58 26 58 58s-26 57 -58 57s-57 -25 -57 -57s25 -58 57 -58zM76 99c42 0 75 -33 75 -75
s-33 -76 -75 -76s-76 34 -76 76s34 75 76 75zM76 -34c32 0 57 26 57 58s-25 57 -57 57s-58 -25 -58 -57s26 -58 58 -58z" />
    <glyph glyph-name="uniF12E" unicode="&#xf12e;" 
d="M256 448c141 0 256 -115 256 -256s-115 -256 -256 -256h-10c-138 5 -246 118 -246 256s108 251 246 256h10zM256 -46c131 0 238 107 238 238s-107 238 -238 238h-2c1 -1 2 -3 2 -5v-468c0 -1 -1 -2 -1 -3h1z" />
    <glyph glyph-name="uniF12F" unicode="&#xf12f;" 
d="M256 448c141 0 256 -115 256 -256s-115 -256 -256 -256s-256 115 -256 256s115 256 256 256zM256 -45c131 0 237 106 237 237s-106 237 -237 237s-237 -106 -237 -237s106 -237 237 -237zM239 319c-59 -8 -94 -56 -94 -128c0 -29 8 -122 101 -132c44 -5 89 16 94 42
c1 5 6 8 11 7s8 -6 7 -11c-7 -33 -50 -57 -99 -57c-5 0 -10 0 -15 1c-28 3 -118 22 -118 150c0 121 84 143 110 147c56 8 110 -18 122 -60c1 -5 -2 -11 -7 -12s-10 2 -11 7c-10 32 -55 53 -101 46z" />
    <glyph glyph-name="uniF130" unicode="&#xf130;" 
d="M132 444v-372h372v-22h-107v-113h-22v113h-265v263h-110v22h110v109h22zM187 138l174 175h-189v22h211l113 113l16 -16l-117 -116v-204h-22v182l-171 -171z" />
    <glyph glyph-name="uniF131" unicode="&#xf131;" horiz-adv-x="388" 
d="M256 333h132v-123h-132v-274h-124v274h-132v123h132v115h124v-115z" />
    <glyph glyph-name="uniF132" unicode="&#xf132;" horiz-adv-x="388" 
d="M256 333h132v-123h-132v-274h-124v274h-132v123h132v115h124v-115zM371 227v89h-133v114h-88v-114h-132v-89h132v-273h88v273h133z" />
    <glyph glyph-name="uniF133" unicode="&#xf133;" 
d="M256 448c141 0 256 -115 256 -256s-115 -256 -256 -256s-256 115 -256 256s115 256 256 256zM256 430c-62 0 -120 -25 -162 -64l162 -161l161 162c-42 39 -99 63 -161 63zM18 192c0 -62 24 -119 63 -161l162 161l-162 162c-39 -42 -63 -100 -63 -162zM256 -46
c62 0 120 24 162 63l-162 163l-162 -162c43 -40 99 -64 162 -64zM430 30c39 43 64 100 64 162c0 63 -24 119 -64 162l-162 -162z" />
    <glyph glyph-name="uniF134" unicode="&#xf134;" 
d="M472 375c22 0 40 -18 40 -40s-18 -40 -40 -40c-5 0 -10 1 -15 3l-71 -234c-1 -4 -4 -6 -8 -6h-250c-4 0 -7 2 -8 6l-75 232c-2 0 -3 -1 -5 -1c-22 0 -40 18 -40 40s18 40 40 40s40 -18 40 -40c0 -12 -6 -23 -15 -30l83 -77l13 141c-18 4 -31 20 -31 39c0 22 18 40 40 40
s40 -18 40 -40c0 -17 -11 -31 -26 -37l68 -127l67 127c-16 5 -27 20 -27 37c0 22 18 40 40 40s40 -18 40 -40c0 -18 -12 -33 -29 -38l20 -142l79 82c-6 7 -10 15 -10 25c0 22 18 40 40 40zM18 335c0 -12 10 -22 22 -22s22 10 22 22s-10 22 -22 22s-22 -10 -22 -22zM310 408
c0 -12 10 -22 22 -22s22 10 22 22s-10 22 -22 22s-22 -10 -22 -22zM148 408c0 -12 10 -22 22 -22s22 10 22 22s-10 22 -22 22s-22 -10 -22 -22zM371 76l17 57h-272l19 -57h236zM393 148l38 124l-67 -69c-2 -2 -6 -4 -9 -3s-6 4 -7 7l-20 142l-68 -128c-2 -3 -5 -5 -8 -5
s-5 2 -7 5l-68 125l-13 -138c0 -3 -3 -7 -6 -8s-7 0 -9 2l-78 73l40 -124h282v-3zM472 313c12 0 22 10 22 22s-10 22 -22 22s-22 -10 -22 -22s10 -22 22 -22z" />
    <glyph glyph-name="uniF135" unicode="&#xf135;" 
d="M321 288l-54 -53l55 -55l-12 -13l-55 55l-55 -55l-13 13l55 55l-55 54l13 13l55 -55l53 54zM512 402c0 -24 -18 -44 -41 -46c-24 -83 -50 -197 -54 -210c-12 -42 -35 -51 -53 -51h-225c-19 0 -42 9 -53 52l-46 209c-22 3 -40 23 -40 46c0 26 20 46 46 46h420
c26 0 46 -20 46 -46zM400 151c4 12 29 123 52 204h-394l45 -204c9 -38 29 -38 36 -38h225c17 0 29 12 36 38zM466 373c16 0 28 13 28 29s-12 28 -28 28h-420c-16 0 -28 -12 -28 -28s12 -29 28 -29h420z" />
    <glyph glyph-name="uniF136" unicode="&#xf136;" 
d="M512 427l-235 -235l230 -230l-21 -21l-230 230l-230 -230l-21 21l230 230l-235 235l21 21l235 -235l235 234z" />
    <glyph glyph-name="uniF137" unicode="&#xf137;" horiz-adv-x="483" 
d="M0 390c0 38 20 58 58 58s57 -20 57 -58s-19 -57 -57 -57s-58 19 -58 57zM179 390c0 38 19 58 57 58s58 -20 58 -58s-20 -57 -58 -57s-57 19 -57 57zM368 390c0 38 20 58 58 58s57 -20 57 -58s-19 -57 -57 -57s-58 19 -58 57zM0 192c0 38 20 58 58 58s57 -20 57 -58
s-19 -58 -57 -58s-58 20 -58 58zM179 192c0 38 19 58 57 58s58 -20 58 -58s-20 -58 -58 -58s-57 20 -57 58zM368 192c0 38 20 58 58 58s57 -20 57 -58s-19 -58 -57 -58s-58 20 -58 58zM0 -6c0 38 20 57 58 57s57 -19 57 -57s-19 -58 -57 -58s-58 20 -58 58zM179 -6
c0 38 19 57 57 57s58 -19 58 -57s-20 -58 -58 -58s-57 20 -57 58zM368 -6c0 38 20 57 58 57s57 -19 57 -57s-19 -58 -57 -58s-58 20 -58 58z" />
    <glyph glyph-name="uniF138" unicode="&#xf138;" horiz-adv-x="360" 
d="M254 448l106 -106v-359c0 -26 -20 -47 -46 -47h-267c-26 0 -47 21 -47 47v418c0 26 21 47 47 47h207zM261 416v-40c0 -15 13 -28 28 -28h40zM342 -17v0v346h-53c-26 0 -46 21 -46 47v53h-196c-15 0 -28 -13 -28 -28v-418c0 -15 13 -28 28 -28h267c15 0 28 13 28 28z
M189 304v-102h103v-19h-103v-102h-18v102h-102v19h102v102h18z" />
    <glyph glyph-name="uniF139" unicode="&#xf139;" horiz-adv-x="360" 
d="M254 448l106 -106v-359c0 -26 -20 -47 -46 -47h-267c-26 0 -47 21 -47 47v418c0 26 21 47 47 47h207zM261 416v-40c0 -15 13 -28 28 -28h40zM342 -17v0v346h-53c-26 0 -46 21 -46 47v53h-196c-15 0 -28 -13 -28 -28v-418c0 -15 13 -28 28 -28h267c15 0 28 13 28 28z
M85 46v107h38v-107h-38zM160 46v191h37v-191h-37zM234 46v70h37v-70h-37z" />
    <glyph glyph-name="uniF13A" unicode="&#xf13a;" horiz-adv-x="361" 
d="M254 448l107 -106v-359c0 -26 -21 -47 -47 -47h-267c-26 0 -47 21 -47 47v418c0 26 21 47 47 47h207zM261 416v-40c0 -15 13 -28 28 -28h40z" />
    <glyph glyph-name="uniF13B" unicode="&#xf13b;" horiz-adv-x="360" 
d="M254 448l106 -106v-359c0 -26 -20 -47 -46 -47h-267c-26 0 -47 21 -47 47v418c0 26 21 47 47 47h207zM261 416v-40c0 -15 13 -28 28 -28h40zM342 -17v0v346h-53c-26 0 -46 21 -46 47v53h-196c-15 0 -28 -13 -28 -28v-418c0 -15 13 -28 28 -28h267c15 0 28 13 28 28z" />
    <glyph glyph-name="uniF13C" unicode="&#xf13c;" horiz-adv-x="360" 
d="M254 448l106 -106v-359c0 -26 -20 -47 -46 -47h-267c-26 0 -47 21 -47 47v418c0 26 21 47 47 47h207zM261 416v-40c0 -15 13 -28 28 -28h40zM342 -17v0v346h-53c-26 0 -46 21 -46 47v53h-196c-15 0 -28 -13 -28 -28v-418c0 -15 13 -28 28 -28h267c15 0 28 13 28 28z
M257 224c7 7 19 7 26 0s7 -19 0 -26l-110 -115c-4 -4 -9 -5 -14 -5c-4 0 -8 1 -12 4l-63 55c-8 7 -9 19 -2 27s18 9 26 2l50 -44z" />
    <glyph glyph-name="uniF13D" unicode="&#xf13d;" horiz-adv-x="360" 
d="M254 448l106 -106v-359c0 -26 -20 -47 -46 -47h-267c-26 0 -47 21 -47 47v418c0 26 21 47 47 47h207zM261 416v-40c0 -15 13 -28 28 -28h40zM342 -17v0v346h-53c-26 0 -46 21 -46 47v53h-196c-15 0 -28 -13 -28 -28v-418c0 -15 13 -28 28 -28h267c15 0 28 13 28 28z
M252 256l13 -13l-72 -72l72 -72l-13 -13l-72 72l-72 -72l-13 13l72 72l-72 72l13 13l72 -72z" />
    <glyph glyph-name="uniF13E" unicode="&#xf13e;" horiz-adv-x="360" 
d="M254 448l106 -106v-359c0 -26 -20 -47 -46 -47h-267c-26 0 -47 21 -47 47v418c0 26 21 47 47 47h207zM261 416v-40c0 -15 13 -28 28 -28h40zM342 -17v0v346h-53c-26 0 -46 21 -46 47v53h-196c-15 0 -28 -13 -28 -28v-418c0 -15 13 -28 28 -28h267c15 0 28 13 28 28z
M227 256c32 0 60 -31 60 -66c0 -61 -105 -106 -107 -144c0 37 -106 85 -106 144c0 34 22 65 55 65c15 0 32 -6 51 -23c15 17 32 24 47 24zM199 128c21 18 51 44 51 62c0 16 -13 29 -23 29c-6 0 -12 -4 -19 -12l-25 -28l-28 25c-10 9 -19 14 -26 14v0c-1 0 -6 0 -11 -6
c-4 -6 -7 -14 -7 -22c0 -16 30 -43 50 -61c7 -6 14 -11 20 -17c6 6 12 10 18 16z" />
    <glyph glyph-name="uniF13F" unicode="&#xf13f;" horiz-adv-x="360" 
d="M254 448l106 -106v-359c0 -26 -20 -47 -46 -47h-267c-26 0 -47 21 -47 47v418c0 26 21 47 47 47h207zM261 416v-40c0 -15 13 -28 28 -28h40zM342 -17v0v346h-53c-26 0 -46 21 -46 47v53h-196c-15 0 -28 -13 -28 -28v-418c0 -15 13 -28 28 -28h267c15 0 28 13 28 28z
M195 157l65 82l29 -23l-85 -108l-63 37l-30 -37l-29 23l51 63z" />
    <glyph glyph-name="uniF140" unicode="&#xf140;" horiz-adv-x="360" 
d="M254 448l106 -106v-359c0 -26 -20 -47 -46 -47h-267c-26 0 -47 21 -47 47v418c0 26 21 47 47 47h207zM261 416v-40c0 -15 13 -28 28 -28h40zM342 -17v0v346h-53c-26 0 -46 21 -46 47v53h-196c-15 0 -28 -13 -28 -28v-418c0 -15 13 -28 28 -28h267c15 0 28 13 28 28z
M180 284c62 0 112 -49 112 -111s-50 -112 -112 -112s-111 50 -111 112s49 111 111 111zM180 80c51 0 94 42 94 93s-43 93 -94 93s-93 -42 -93 -93s42 -93 93 -93z" />
    <glyph glyph-name="uniF141" unicode="&#xf141;" horiz-adv-x="360" 
d="M254 448l106 -106v-359c0 -26 -20 -47 -46 -47h-267c-26 0 -47 21 -47 47v418c0 26 21 47 47 47h207zM261 416v-40c0 -15 13 -28 28 -28h40zM342 -17v0v346h-53c-26 0 -46 21 -46 47v53h-196c-15 0 -28 -13 -28 -28v-418c0 -15 13 -28 28 -28h267c15 0 28 13 28 28z
M69 183v18h223v-18h-223z" />
    <glyph glyph-name="uniF142" unicode="&#xf142;" horiz-adv-x="465" 
d="M50 -22v428h18v-428h-18zM0 10v363h19v-363h-19zM446 360l19 -18v-359c0 -26 -21 -47 -47 -47h-267c-26 0 -47 21 -47 47v418c0 26 21 47 47 47h207l19 -19zM365 416v-40c0 -15 13 -28 28 -28h41zM446 -17v346h-53c-26 0 -46 21 -46 47v53h-196c-15 0 -28 -13 -28 -28
v-418c0 -15 13 -28 28 -28h267c15 0 28 13 28 28zM191 63v107h37v-107h-37zM266 63v191h37v-191h-37zM340 63v70h37v-70h-37z" />
    <glyph glyph-name="uniF143" unicode="&#xf143;" horiz-adv-x="465" 
d="M50 -22v428h18v-428h-18zM0 10v363h19v-363h-19zM446 360l19 -18v-359c0 -26 -21 -47 -47 -47h-267c-26 0 -47 21 -47 47v418c0 26 21 47 47 47h207l19 -19zM365 416v-40c0 -15 13 -28 28 -28h41zM446 -17v346h-53c-26 0 -46 21 -46 47v53h-196c-15 0 -28 -13 -28 -28
v-418c0 -15 13 -28 28 -28h267c15 0 28 13 28 28zM369 234c6 6 16 7 22 1s6 -16 0 -22l-110 -115c-3 -3 -7 -5 -11 -5s-8 1 -11 4l-63 56c-7 6 -7 16 -1 22c6 7 16 7 22 1l52 -45z" />
    <glyph glyph-name="uniF144" unicode="&#xf144;" horiz-adv-x="465" 
d="M446 361l19 -19v-359c0 -26 -21 -47 -47 -47h-267c-26 0 -47 21 -47 47v418c0 26 21 47 47 47h207l19 -19zM365 416v-40c0 -15 13 -28 28 -28h41zM50 -22v428h18v-428h-18zM0 10v363h19v-363h-19z" />
    <glyph glyph-name="uniF145" unicode="&#xf145;" horiz-adv-x="465" 
d="M50 -22v428h18v-428h-18zM0 10v363h19v-363h-19zM446 360l19 -18v-359c0 -26 -21 -47 -47 -47h-267c-26 0 -47 21 -47 47v418c0 26 21 47 47 47h207l19 -19zM365 416v-40c0 -15 13 -28 28 -28h41zM446 -17v346h-53c-26 0 -46 21 -46 47v53h-196c-15 0 -28 -13 -28 -28
v-418c0 -15 13 -28 28 -28h267c15 0 28 13 28 28zM333 267c32 0 59 -31 59 -66c0 -61 -105 -106 -107 -144c0 37 -106 85 -106 144c0 34 22 65 55 65c15 0 32 -6 51 -23c15 17 33 24 48 24zM305 140c21 18 50 43 50 61c0 16 -12 29 -22 29c-6 0 -13 -4 -20 -12l-25 -28
l-27 25c-10 9 -20 14 -27 14v0c-1 0 -6 0 -11 -6c-4 -6 -7 -14 -7 -22c0 -16 30 -42 50 -60c7 -6 14 -12 20 -18c6 6 13 11 19 17z" />
    <glyph glyph-name="uniF146" unicode="&#xf146;" horiz-adv-x="465" 
d="M50 -22v428h18v-428h-18zM0 10v363h19v-363h-19zM446 360l19 -18v-359c0 -26 -21 -47 -47 -47h-267c-26 0 -47 21 -47 47v418c0 26 21 47 47 47h207l19 -19zM365 416v-40c0 -15 13 -28 28 -28h41zM446 -17v346h-53c-26 0 -46 21 -46 47v53h-196c-15 0 -28 -13 -28 -28
v-418c0 -15 13 -28 28 -28h267c15 0 28 13 28 28zM295 165l65 82l30 -23l-86 -107l-62 37l-31 -38l-28 24l50 62z" />
    <glyph glyph-name="uniF147" unicode="&#xf147;" horiz-adv-x="465" 
d="M50 -22v428h18v-428h-18zM0 10v363h19v-363h-19zM446 360l19 -18v-359c0 -26 -21 -47 -47 -47h-267c-26 0 -47 21 -47 47v418c0 26 21 47 47 47h207l19 -19zM365 416v-40c0 -15 13 -28 28 -28h41zM446 -17v346h-53c-26 0 -46 21 -46 47v53h-196c-15 0 -28 -13 -28 -28
v-418c0 -15 13 -28 28 -28h267c15 0 28 13 28 28z" />
    <glyph glyph-name="uniF148" unicode="&#xf148;" horiz-adv-x="380" 
d="M339 448c23 0 41 -19 41 -42v-297c0 -23 -18 -41 -41 -41h-140v-97l56 56l13 -13l-78 -78l-77 78l13 13l54 -54v95h-138c-23 0 -42 18 -42 41v297c0 23 19 42 42 42h297zM363 109v297c0 14 -10 25 -24 25h-297c-14 0 -25 -11 -25 -25v-297c0 -14 11 -24 25 -24h138v163
h19v-163h140c14 0 24 10 24 24z" />
    <glyph glyph-name="uniF149" unicode="&#xf149;" horiz-adv-x="497" 
d="M497 202v0v-121l-249 -145l-248 145v121v0l238 105v141h19v-141zM19 92l221 -130l-1 105l-218 123h-2v-98zM40 200l209 -117l208 117l-200 87v-102l46 46l12 -13l-67 -67l-66 67l12 13l44 -44v100zM479 91v99h-4l-217 -123v-105zM497 202v0v0v0z" />
    <glyph glyph-name="uniF14A" unicode="&#xf14a;" horiz-adv-x="476" 
d="M475 102c1 -3 1 -6 -1 -8s-4 -3 -7 -3h-459c-3 0 -5 1 -7 3s-1 5 0 8l101 229c1 3 5 5 8 5h118v112h18v-112h120c3 0 6 -2 7 -5zM22 107v1h432l-94 211h-114v-109l43 42l12 -12l-63 -63l-63 64l12 12l41 -42v108h-112zM5 12v17h466v-17h-466zM5 -64v17h466v-17h-466z" />
    <glyph glyph-name="uniF14B" unicode="&#xf14b;" horiz-adv-x="430" 
d="M151 430v18h128v-18h-128zM421 408c5 0 9 -4 9 -9v-271c0 -5 -4 -9 -9 -9h-412c-5 0 -9 4 -9 9v271c0 5 4 9 9 9h412zM251 136v254h-233v-254h233zM412 136v254h-98v-254h98zM319 71l52 -122c2 -5 0 -10 -5 -12c-1 0 -2 -1 -3 -1c-3 0 -7 2 -8 5l-56 130h-75v-85
c0 -5 -4 -9 -9 -9s-9 4 -9 9v85h-72l-64 -130c-2 -3 -5 -5 -8 -5c-1 0 -3 0 -4 1c-4 2 -6 8 -4 12l60 122h-52v18h243v0h64v-18h-50z" />
    <glyph glyph-name="uniF14C" unicode="&#xf14c;" 
d="M465 448c26 0 47 -21 47 -47v-233c0 -26 -21 -46 -47 -46h-418c-26 0 -47 20 -47 46v233c0 26 21 47 47 47h418zM465 429h-418c-3 0 -6 0 -8 -1l217 -172l217 172c-2 1 -5 1 -8 1zM47 140h418c3 0 5 1 8 2l-149 118l15 12l150 -119c3 4 4 9 4 15v233c0 6 -1 12 -4 16
l-233 -185l-233 185c-3 -4 -4 -10 -4 -16v-233c0 -6 1 -11 4 -15l149 119l15 -12l-148 -118c3 -1 5 -2 8 -2z" />
    <glyph glyph-name="uniF14D" unicode="&#xf14d;" 
d="M325 248l-69 -69l-69 69l13 13l46 -45v232h19v-234l47 47zM465 304c26 0 47 -21 47 -47v-233c0 -26 -21 -46 -47 -46h-418c-26 0 -47 20 -47 46v233c0 26 21 47 47 47h131v-19h-131c-3 0 -6 0 -8 -1l217 -173l217 173c-2 1 -5 1 -8 1h-131v19h131zM489 9c3 4 4 9 4 15
v233c0 6 -1 12 -4 16l-233 -185l-233 185c-3 -4 -4 -10 -4 -16v-233c0 -6 1 -11 4 -15l149 119l15 -12l-148 -118c3 -1 5 -2 8 -2h418c3 0 5 1 8 2l-149 118l15 12z" />
    <glyph glyph-name="uniF14E" unicode="&#xf14e;" 
d="M246 411l-46 -46l-13 13l69 70l69 -69l-13 -14l-47 47v-233h-19v232zM465 304c26 0 47 -21 47 -47v-233c0 -26 -21 -46 -47 -46h-418c-26 0 -47 20 -47 46v233c0 26 21 47 47 47h131v-19h-131c-3 0 -6 0 -8 -1l217 -173l217 173c-2 1 -5 1 -8 1h-131v19h131zM47 -4h418
c3 0 5 1 8 2l-149 118l15 12l150 -119c3 4 4 9 4 15v233c0 6 -1 12 -4 16l-233 -185l-233 185c-3 -4 -4 -10 -4 -16v-233c0 -6 1 -11 4 -15l149 119l15 -12l-148 -118c3 -1 5 -2 8 -2z" />
    <glyph glyph-name="uniF14F" unicode="&#xf14f;" 
d="M489 441l-233 -185l-233 185c7 4 15 7 24 7h418c9 0 17 -3 24 -7zM503 429c6 -8 9 -18 9 -28v-233c0 -10 -4 -18 -9 -26l-164 130l-15 -12l166 -131c-7 -4 -16 -7 -25 -7h-418c-9 0 -17 2 -24 6l164 132l-15 12l-163 -131c-6 8 -9 17 -9 27v233c0 10 3 20 9 28l247 -196z
" />
    <glyph glyph-name="uniF150" unicode="&#xf150;" 
d="M503 138c5 0 9 -4 9 -9v-183c0 -5 -4 -9 -9 -9h-494c-5 0 -9 4 -9 9v183c0 5 4 9 9 9h54l18 302c0 5 4 8 9 8h48c5 0 9 -4 9 -9l11 -301h81l56 52c4 3 9 2 12 -1l48 -47l49 47c4 3 10 4 13 0l50 -51h36zM99 430l-18 -292h59l-11 292h-30zM494 -45v0v165h-31
c-2 0 -5 1 -7 3l-46 47l-49 -47c-4 -3 -9 -3 -12 0l-48 48l-52 -48c-2 -2 -4 -3 -6 -3h-225v-165h476zM50 48v18h413v-18h-413zM49 -1v18h414v-18h-414z" />
    <glyph glyph-name="uniF151" unicode="&#xf151;" 
d="M512 448v0v-95h-28v-272c0 -23 -19 -41 -42 -41h-375c-23 0 -41 18 -41 41v272h-26v95h512zM466 81v272h-423v-272c0 -13 11 -24 24 -24h375c13 0 24 11 24 24zM493 371v58h-474v-58h474zM181 222c-20 0 -37 17 -37 37s17 37 37 37h150c20 0 37 -17 37 -37
s-17 -37 -37 -37h-150zM181 277c-10 0 -18 -8 -18 -18s8 -18 18 -18h150c10 0 19 8 19 18s-9 18 -19 18h-150z" />
    <glyph glyph-name="uniF152" unicode="&#xf152;" horiz-adv-x="430" 
d="M376 448c30 0 54 -24 54 -54v-404c0 -30 -24 -54 -54 -54h-322c-30 0 -54 24 -54 54v404c0 30 24 54 54 54h322zM54 430c-20 0 -36 -16 -36 -36v-194h394v194c0 20 -16 36 -36 36h-322zM376 -46c20 0 36 16 36 36v192h-394v-192c0 -20 16 -36 36 -36h322zM149 317v-20
h-18v38h169v-38h-18v20h-133zM131 45v39h169v-39h-18v21h-133v-21h-18z" />
    <glyph glyph-name="uniF153" unicode="&#xf153;" horiz-adv-x="345" 
d="M336 373c5 0 9 -4 9 -9v-231c0 -5 -4 -9 -9 -9h-116c-5 0 -9 4 -9 9v37l-193 -17v-217h-18v512h18v-16h1l202 -18c5 0 8 -4 8 -9v-32h107zM18 414v-243l193 18v207zM327 142v213h-98v-175v-38h98z" />
    <glyph glyph-name="uniF154" unicode="&#xf154;" horiz-adv-x="381" 
d="M379 138c2 -3 3 -6 1 -9s-5 -5 -8 -5h-152c-5 0 -9 4 -9 9v37l-193 -17v-217h-18v512h18v-16h1l202 -18c5 0 8 -4 8 -9v-32h143c4 0 7 -2 8 -5s1 -7 -1 -10l-86 -104zM18 414v-243l193 18v207zM229 142v0h125l-80 106c-3 3 -3 9 0 12l79 95h-124v-175v-38z" />
    <glyph glyph-name="uniF155" unicode="&#xf155;" 
d="M512 -55v-9h-88h-9h-318h-9h-88v512h150h9h194v0h9c10 0 43 -1 47 -1h3l99 -99v-3c0 -4 1 -281 1 -400zM353 430h-194v-141h194v141zM97 -46h318v264h-318v-264zM433 -46h61v386l-90 90h-33v-159h-230v159h-123v-476h61v282h354v-282zM150 156v18h212v-18h-212zM150 103
v18h212v-18h-212zM150 50v18h212v-18h-212zM150 -3v18h212v-18h-212zM287 314v97h38v-97h-38z" />
    <glyph glyph-name="uniF156" unicode="&#xf156;" 
d="M465 410c26 0 47 -20 47 -46v-330c0 -26 -21 -47 -47 -47h-418c-26 0 -47 21 -47 47v321v46c0 26 21 47 47 47h41c26 0 47 -21 47 -47v9h330zM493 34v300h-474v-61v-239c0 -15 13 -28 28 -28h418c15 0 28 13 28 28zM493 352v12c0 15 -13 28 -28 28h-349v9
c0 15 -13 28 -28 28h-41c-15 0 -28 -13 -28 -28v-49h474zM246 56v102h-101v19h101v102h19v-102h102v-19h-102v-102h-19z" />
    <glyph glyph-name="uniF157" unicode="&#xf157;" 
d="M465 410c26 0 47 -20 47 -46v-330c0 -26 -21 -47 -47 -47h-418c-26 0 -47 21 -47 47v321v46c0 26 21 47 47 47h41c26 0 47 -21 47 -47v9h330zM493 34v300h-474v-61v-239c0 -15 13 -28 28 -28h418c15 0 28 13 28 28zM493 352v12c0 15 -13 28 -28 28h-349v9
c0 15 -13 28 -28 28h-41c-15 0 -28 -13 -28 -28v-49h474zM216 82l-92 80c-4 3 -4 9 -1 13s9 4 13 1l85 -74l154 159c4 4 9 5 13 1s4 -10 0 -14l-159 -165c-2 -2 -5 -3 -7 -3s-4 0 -6 2z" />
    <glyph glyph-name="uniF158" unicode="&#xf158;" 
d="M184 90l-13 13l72 72l-72 73l13 13l72 -73l72 73l13 -13l-72 -73l72 -72l-13 -13l-72 72zM465 410c26 0 47 -20 47 -46v-330c0 -26 -21 -47 -47 -47h-418c-26 0 -47 21 -47 47v321v46c0 26 21 47 47 47h41c26 0 47 -21 47 -47v9h330zM493 34v300h-474v-61v-239
c0 -15 13 -28 28 -28h418c15 0 28 13 28 28zM493 352v12c0 15 -13 28 -28 28h-349v9c0 15 -13 28 -28 28h-41c-15 0 -28 -13 -28 -28v-49h474z" />
    <glyph glyph-name="uniF159" unicode="&#xf159;" 
d="M465 410c26 0 47 -20 47 -46v-330c0 -26 -21 -47 -47 -47h-418c-26 0 -47 21 -47 47v321v46c0 26 21 47 47 47h41c26 0 47 -21 47 -47v9h330zM493 352v12c0 15 -13 28 -28 28h-349v9c0 15 -13 28 -28 28h-41c-15 0 -28 -13 -28 -28v-49h474z" />
    <glyph glyph-name="uniF15A" unicode="&#xf15a;" 
d="M465 410c26 0 47 -20 47 -46v-330c0 -26 -21 -47 -47 -47h-418c-26 0 -47 21 -47 47v321v46c0 26 21 47 47 47h41c26 0 47 -21 47 -47v9h330zM493 34v300h-474v-61v-239c0 -15 13 -28 28 -28h418c15 0 28 13 28 28zM493 352v12c0 15 -13 28 -28 28h-349v9
c0 15 -13 28 -28 28h-41c-15 0 -28 -13 -28 -28v-49h474zM256 54c-62 0 -112 50 -112 112s50 112 112 112s112 -50 112 -112s-50 -112 -112 -112zM256 259c-51 0 -93 -42 -93 -93s42 -93 93 -93s93 42 93 93s-42 93 -93 93z" />
    <glyph glyph-name="uniF15B" unicode="&#xf15b;" 
d="M465 410c26 0 47 -20 47 -46v-330c0 -26 -21 -47 -47 -47h-418c-26 0 -47 21 -47 47v321v46c0 26 21 47 47 47h41c26 0 47 -21 47 -47v9h330zM493 34v300h-474v-61v-239c0 -15 13 -28 28 -28h418c15 0 28 13 28 28zM493 352v12c0 15 -13 28 -28 28h-349v9
c0 15 -13 28 -28 28h-41c-15 0 -28 -13 -28 -28v-49h474zM145 168v18h222v-18h-222z" />
    <glyph glyph-name="uniF15C" unicode="&#xf15c;" 
d="M465 410c26 0 47 -20 47 -46v-330c0 -26 -21 -47 -47 -47h-418c-26 0 -47 21 -47 47v321v46c0 26 21 47 47 47h41c26 0 47 -21 47 -47v9h330zM493 34v300h-474v-61v-239c0 -15 13 -28 28 -28h418c15 0 28 13 28 28zM493 352v12c0 15 -13 28 -28 28h-349v9
c0 15 -13 28 -28 28h-41c-15 0 -28 -13 -28 -28v-49h474z" />
    <glyph glyph-name="uniF15D" unicode="&#xf15d;" horiz-adv-x="433" 
d="M415 268l18 -332h-433l18 332c0 103 105 180 199 180s198 -77 198 -180zM327 -46v0h87l-17 313c0 93 -95 163 -180 163s-181 -69 -181 -162l-17 -314h84v83h18v-83h87v136h18v-136h83v83h18v-83zM273 299c20 0 35 -16 35 -36s-15 -36 -35 -36s-36 16 -36 36s16 36 36 36z
M273 245c10 0 17 8 17 18s-7 18 -17 18s-18 -8 -18 -18s8 -18 18 -18zM165 299c20 0 36 -16 36 -36s-16 -36 -36 -36s-36 16 -36 36s16 36 36 36zM165 245c10 0 18 8 18 18s-8 18 -18 18s-18 -8 -18 -18s8 -18 18 -18z" />
    <glyph glyph-name="uniF15E" unicode="&#xf15e;" 
d="M506 352c3 -1 6 -4 6 -8s-2 -8 -5 -9l-77 -32h2l1 -152l-11 2s-12 2 -33 -1l17 -149c1 -5 -3 -9 -8 -10h-1c-5 0 -8 3 -9 8l-15 134l-12 -134c0 -5 -5 -8 -10 -8s-8 4 -8 9l13 142c-27 -8 -60 -22 -95 -50l-5 -5l-6 5c-88 68 -157 65 -158 65h-9v143l-78 33
c-3 1 -5 5 -5 9s3 7 6 8l247 95c2 1 4 1 6 0zM256 112c38 29 73 44 101 52l6 61v49l-103 -43c-1 0 -3 -1 -4 -1s-2 1 -3 1l-152 64v-118c22 -1 82 -11 155 -65zM415 171l-1 125l-33 -14v-57l6 -55c12 2 21 1 28 1zM374 299l105 44l-223 86l-223 -86l223 -94l96 40l-96 43h-2
c-10 0 -17 4 -17 9s7 9 17 9c7 0 13 -2 16 -5z" />
    <glyph glyph-name="uniF15F" unicode="&#xf15f;" 
d="M488 159c7 -22 21 -41 24 -45c-25 -24 -109 -37 -193 -37c-85 0 -169 12 -194 37c3 4 10 14 16 28h-6c-59 0 -118 9 -135 26c3 3 12 16 16 31c5 16 19 24 19 24s43 11 57 18c4 2 9 6 11 10c-21 14 -35 43 -35 80c0 54 29 68 66 68s67 -14 67 -68c0 -37 -14 -66 -35 -80
c2 -4 6 -8 10 -10c14 -7 57 -18 57 -18s6 -3 11 -9c6 2 10 4 14 6c6 3 11 8 14 14c-30 21 -50 63 -50 116c0 78 43 98 96 98s96 -20 96 -98c0 -53 -20 -95 -50 -116c3 -6 8 -11 14 -14c21 -9 83 -26 83 -26s20 -12 27 -35zM25 174c20 -7 59 -14 110 -14h13c7 22 28 34 28 34
s24 7 47 14c-13 3 -41 11 -54 17c-7 3 -13 9 -18 17l-9 14l14 9c17 12 27 37 27 66c0 36 -14 50 -49 50s-48 -14 -48 -50c0 -29 10 -53 27 -65l13 -10l-8 -14c-5 -8 -10 -14 -18 -17c-13 -6 -46 -15 -57 -18c-3 -2 -8 -7 -10 -13c-2 -7 -5 -14 -8 -20zM319 95
c81 0 141 11 168 24c-6 9 -12 21 -16 35c-4 12 -14 21 -18 24c-14 4 -62 16 -82 25c-9 4 -17 12 -23 22l-8 14l14 9c27 19 42 57 42 102c0 56 -23 80 -78 80s-78 -24 -78 -80c0 -45 16 -82 43 -101l13 -10l-8 -14c-6 -10 -14 -18 -23 -22c-20 -9 -68 -21 -82 -25
c-4 -3 -14 -11 -18 -24s-10 -26 -16 -35c27 -13 88 -24 170 -24z" />
    <glyph glyph-name="uniF160" unicode="&#xf160;" horiz-adv-x="417" 
d="M284 295h22l18 -324c-4 -31 -48 -35 -78 -35s-75 5 -79 34l18 325h22l-16 -314c0 -20 35 -21 54 -21s55 1 55 21zM185 448h232v-130h-417s72 130 185 130zM185 427c-66 0 -118 -52 -145 -87h284v87h-139zM396 340v87h-52v-87h52z" />
    <glyph glyph-name="uniF161" unicode="&#xf161;" 
d="M458 448c30 0 54 -24 54 -54v-210c0 -30 -24 -54 -54 -54h-404c-30 0 -54 24 -54 54v210c0 30 24 54 54 54h404zM494 184v210c0 20 -16 36 -36 36h-404c-20 0 -36 -16 -36 -36v-210c0 -20 16 -36 36 -36h404c20 0 36 16 36 36zM212 307v57h18v-150h-18v75h-81v-75h-18
v150h18v-57h81zM338 364c25 0 63 -37 63 -62v-25c0 -25 -38 -63 -63 -63h-36h-1h-17v150h17h1h36zM383 277v25c0 15 -30 45 -45 45h-36v-115h36c15 0 45 30 45 45z" />
    <glyph glyph-name="uniF162" unicode="&#xf162;" horiz-adv-x="400" 
d="M0 430v18h400v-18h-400zM0 -64v18h400v-18h-400zM39 -19c-2 3 -2 6 0 9l129 202l-128 202c-2 3 -2 6 0 9s5 4 8 4h312c3 0 6 -1 8 -4s1 -7 -1 -10l-140 -201l140 -202c2 -3 3 -6 1 -9s-5 -5 -8 -5v0h-313c-3 0 -6 2 -8 5zM318 30l-107 153h-4v-153h111zM343 390h-279
l16 -25h245zM184 183l-98 -153h103v153h-5z" />
    <glyph glyph-name="uniF163" unicode="&#xf163;" 
d="M458 448c30 0 54 -24 54 -54v-250c0 -30 -24 -54 -54 -54h-404c-30 0 -54 24 -54 54v250c0 30 24 54 54 54h404zM494 144v250c0 20 -16 36 -36 36h-404c-20 0 -36 -16 -36 -36v-250c0 -10 4 -19 11 -26c2 5 5 10 7 16c5 17 21 27 21 27s46 12 62 19c8 4 12 11 14 19
c-25 15 -41 48 -41 90c0 59 32 75 72 75s73 -16 73 -75c0 -43 -17 -75 -42 -90c2 -8 7 -15 15 -19c16 -7 62 -19 62 -19s16 -10 21 -27c3 -10 8 -20 12 -26h153c20 0 36 16 36 36zM309 348v18h135v-18h-135zM309 285v18h135v-18h-135zM309 222v18h135v-18h-135zM390 159v18
h54v-18h-54z" />
    <glyph glyph-name="uniF164" unicode="&#xf164;" 
d="M511 346h1v-13v-5v-159c0 -26 -21 -47 -47 -47h-418c-26 0 -47 21 -47 47v159v0v18h1l122 102h265zM129 429l-101 -83h125v-8c0 -4 9 -103 102 -103c94 0 103 99 103 103l1 8h121l-98 83h-253zM493 169v159h-117c-5 -28 -28 -112 -121 -112s-114 84 -119 112h-117v-159
c0 -15 13 -28 28 -28h418c15 0 28 13 28 28z" />
    <glyph glyph-name="uniF165" unicode="&#xf165;" 
d="M325 248l-69 -69l-69 69l13 13l46 -45v232h19v-234l47 47zM511 215h1v-13v-6v-159c0 -26 -21 -46 -47 -46h-418c-26 0 -47 20 -47 46v159v0v19h1l122 101h53v-18h-47l-101 -83h125v-9c0 -4 9 -103 102 -103c94 0 103 99 103 103l1 9h121l-98 83h-47v18h53zM493 37v159
h-117c-5 -28 -28 -112 -121 -112s-114 84 -119 112h-117v-159c0 -15 13 -28 28 -28h418c15 0 28 13 28 28z" />
    <glyph glyph-name="uniF166" unicode="&#xf166;" 
d="M511 346h1v-13v-5v-159c0 -26 -21 -47 -47 -47h-418c-26 0 -47 21 -47 47v159v0v18h1l122 102h213h26h26zM129 429l-101 -83h125v-8c0 -4 9 -103 102 -103c94 0 103 99 103 103l1 8h121l-98 83h-20h-27h-206zM493 169v159h-117c-5 -28 -28 -112 -121 -112
s-114 84 -119 112h-117v-159c0 -15 13 -28 28 -28h418c15 0 28 13 28 28zM201 273v19h111v-19h-111zM175 320v18h162v-18h-162zM401 385l22 -19h-339l23 19h294z" />
    <glyph glyph-name="uniF167" unicode="&#xf167;" 
d="M511 346h1v-13v-5v-159c0 -26 -21 -47 -47 -47h-418c-26 0 -47 21 -47 47v159v0v18h1l122 102h265zM129 429l-101 -83h125v-8c0 -4 9 -103 102 -103c94 0 103 99 103 103l1 8h121l-98 83h-253z" />
    <glyph glyph-name="uniF168" unicode="&#xf168;" 
d="M325 248l-69 -69l-69 69l13 13l46 -45v232h19v-234l47 47zM511 215h1v-13v-6v-159c0 -26 -21 -46 -47 -46h-418c-26 0 -47 20 -47 46v159v0v19h1l122 101h53v-18h-47l-101 -83h125v-9c0 -4 9 -103 102 -103s103 99 103 103l1 9h121l-98 83h-46v18h52z" />
    <glyph glyph-name="uniF169" unicode="&#xf169;" 
d="M256 448c141 0 256 -115 256 -256s-115 -256 -256 -256s-256 115 -256 256s115 256 256 256zM256 -45c131 0 237 106 237 237s-106 237 -237 237s-237 -106 -237 -237s106 -237 237 -237zM237 34v223h38v-223h-38zM228 322c0 19 9 28 28 28s28 -9 28 -28s-9 -28 -28 -28
s-28 9 -28 28z" />
    <glyph glyph-name="uniF16A" unicode="&#xf16a;" 
d="M210 233c13 0 25 2 36 8l15 -15c-15 -9 -32 -14 -51 -14h-109c-56 0 -101 45 -101 101v5c0 28 12 53 30 71s43 30 71 30h109c56 0 101 -45 101 -101v-5c0 -12 -2 -23 -6 -34c-5 5 -11 10 -16 16c1 6 2 12 2 18v5c0 22 -9 42 -24 57s-35 24 -57 24h-109
c-22 0 -42 -9 -57 -24s-24 -35 -24 -57v-5c0 -22 9 -42 24 -57s35 -23 57 -23h109zM411 448c56 0 101 -45 101 -101v-5c0 -28 -12 -53 -30 -71s-43 -30 -71 -30l-109 1c-56 0 -101 44 -101 100v5c0 14 3 27 8 39c5 -5 11 -10 16 -15c-2 -8 -4 -16 -4 -24v-5
c0 -44 37 -80 81 -80h109c22 0 42 8 57 23s24 35 24 57v5c0 22 -9 42 -24 57s-35 24 -57 24h-109c-13 0 -25 -3 -36 -9l-15 15c15 9 32 14 51 14h109z" />
    <glyph glyph-name="uniF16B" unicode="&#xf16b;" horiz-adv-x="351" 
d="M184 29c62 -1 167 -11 167 -46c0 -37 -115 -47 -176 -47s-175 10 -175 47c0 35 104 45 166 46v209c-54 5 -96 50 -96 105c0 58 47 105 105 105s105 -47 105 -105c0 -55 -42 -100 -96 -105v-209zM88 343c0 -38 24 -70 57 -82c-22 16 -30 45 -30 91h18c0 -68 17 -89 77 -89
c31 13 53 44 53 80c0 48 -40 87 -88 87s-87 -39 -87 -87zM175 -46c99 0 156 19 158 29c-1 9 -56 27 -149 28v-32h-18v32c-93 -1 -147 -19 -148 -28c2 -10 58 -29 157 -29z" />
    <glyph glyph-name="uniF16C" unicode="&#xf16c;" horiz-adv-x="433" 
d="M387 217c25 0 46 -21 46 -46v-189c0 -26 -21 -46 -46 -46h-341c-25 0 -46 20 -46 46v189c0 25 21 46 46 46h40v101c0 72 58 130 130 130s131 -58 131 -130v-101h40zM226 96c5 3 9 9 9 16c0 10 -9 19 -19 19s-18 -9 -18 -19c0 -7 4 -13 9 -16v-45h19v45zM328 217v101
c0 62 -50 112 -112 112s-112 -50 -112 -112v-101h224z" />
    <glyph glyph-name="uniF16D" unicode="&#xf16d;" horiz-adv-x="433" 
d="M386 217c25 0 47 -21 47 -46v-189c0 -25 -22 -46 -47 -46h-340c-25 0 -46 21 -46 46v189c0 25 21 46 46 46h40v101c0 72 58 130 130 130s131 -58 131 -130v-101h39zM104 318v-101h224v101c0 62 -50 112 -112 112s-112 -50 -112 -112zM414 -18v189c0 15 -13 27 -28 27
h-340c-15 0 -28 -12 -28 -27v-189c0 -15 13 -28 28 -28h340c15 0 28 13 28 28zM216 131c10 0 19 -9 19 -19c0 -7 -4 -13 -9 -16v-45h-19v45c-5 3 -9 9 -9 16c0 10 8 19 18 19z" />
    <glyph glyph-name="uniF16E" unicode="&#xf16e;" 
d="M438 184c41 0 74 -33 74 -74s-33 -74 -74 -74c-38 0 -69 28 -74 65h-35c-5 -37 -35 -65 -73 -65s-68 28 -73 65h-36c-5 -37 -35 -65 -73 -65c-41 0 -74 33 -74 74s33 74 74 74c38 0 68 -28 73 -65h36c4 34 30 61 64 65v116c-37 4 -65 36 -65 74c0 41 33 74 74 74
s74 -33 74 -74c0 -38 -29 -68 -65 -73v-118c33 -4 60 -31 64 -64h36c5 37 35 65 73 65zM74 54c31 0 56 25 56 56s-25 56 -56 56s-56 -25 -56 -56s25 -56 56 -56zM256 54c31 0 56 25 56 56s-25 56 -56 56s-56 -25 -56 -56s25 -56 56 -56zM438 54c31 0 56 25 56 56
s-25 56 -56 56s-56 -25 -56 -56s25 -56 56 -56z" />
    <glyph glyph-name="uniF16F" unicode="&#xf16f;" 
d="M0 426v22h512v-22h-512z" />
    <glyph glyph-name="uniF170" unicode="&#xf170;" 
d="M80 66l174 177l181 -177h-355zM465 448c26 0 47 -21 47 -47v-232c0 -26 -21 -47 -47 -47h-59l-19 19h78c15 0 28 13 28 28v232c0 15 -13 28 -28 28h-418c-15 0 -28 -13 -28 -28v-232c0 -15 13 -28 28 -28h78l-18 -19h-60c-26 0 -47 21 -47 47v232c0 26 21 47 47 47h418z
" />
    <glyph glyph-name="uniF171" unicode="&#xf171;" 
d="M335 331c31 0 56 -25 56 -56v-279c0 -31 -25 -56 -56 -56h-279c-31 0 -56 25 -56 56v279c0 31 25 56 56 56h279zM369 -4v279c0 18 -16 33 -34 33h-279c-18 0 -34 -15 -34 -33v-279c0 -18 16 -34 34 -34h279c18 0 34 16 34 34zM456 448c31 0 56 -25 56 -56v-279
c0 -31 -25 -56 -56 -56h-37v22h37c18 0 34 16 34 34v279c0 18 -16 34 -34 34h-279c-18 0 -34 -16 -34 -34v-34c-7 0 -15 -1 -22 -1v35c0 31 25 56 56 56h279z" />
    <glyph glyph-name="uniF172" unicode="&#xf172;" 
d="M0 448h512v-455h-512v455zM493 12v417h-474v-417h474zM74 350v37h364v-37h-364zM66 243v19h95v-19h-95zM66 280v19h95v-19h-95zM66 206v18h95v-18h-95zM66 169v18h95v-18h-95zM66 131v19h95v-19h-95zM66 75v19h383v-19h-383zM66 38v19h383v-19h-383zM194 131v161h255
v-161h-255z" />
    <glyph glyph-name="uniF173" unicode="&#xf173;" horiz-adv-x="434" 
d="M380 410c30 0 54 -24 54 -54v-366c0 -30 -24 -54 -54 -54h-326c-30 0 -54 24 -54 54v366c0 30 24 54 54 54h32v38h18v-38h63v38h18v-38h64v38h18v-38h63v38h18v-38h32zM54 392c-20 0 -36 -16 -36 -36v-45h398v45c0 20 -16 36 -36 36h-32v-20h-18v20h-63v-20h-18v20h-64
v-20h-18v20h-63v-20h-18v20h-32zM18 130h398v73h-398v-73zM416 112h-398v-72h398v72zM18 221h398v72h-398v-72zM380 -46c20 0 36 16 36 36v32h-398v-32c0 -20 16 -36 36 -36h326z" />
    <glyph glyph-name="uniF174" unicode="&#xf174;" 
d="M246 411l-45 -46l-14 13l69 70l69 -69l-13 -13l-47 46v-233h-19v232zM511 202h1v-13v-5v-159c0 -26 -21 -47 -47 -47h-418c-26 0 -47 21 -47 47v159v18v0l123 102h52v-19h-46l-101 -83h125v-9c0 -4 9 -103 102 -103c94 0 103 100 103 104l1 8h121l-98 83h-46v19h52z" />
    <glyph glyph-name="uniF175" unicode="&#xf175;" 
d="M246 411l-46 -46l-13 13l69 70l69 -69l-13 -14l-47 47v-233h-19v232zM511 202h1v-13v-5v-159c0 -26 -21 -47 -47 -47h-418c-26 0 -47 21 -47 47v159v0v18h1l122 102h53v-19h-47l-101 -83h125v-9c0 -4 9 -103 102 -103c94 0 103 100 103 104l1 8h121l-98 83h-47v19h53z
M493 25v159h-117c-5 -28 -28 -112 -121 -112s-114 84 -119 112h-117v-159c0 -15 13 -28 28 -28h418c15 0 28 13 28 28z" />
    <glyph glyph-name="uniF176" unicode="&#xf176;" horiz-adv-x="510" 
d="M421 295h-3l-51 -51l2 -2c3 -3 4 -8 1 -12c-9 -11 -17 -24 -27 -35c111 -119 165 -245 166 -246c2 -4 1 -7 -2 -10c-2 -2 -5 -3 -7 -3c-1 0 -3 0 -4 1s-119 54 -241 166c-122 -112 -240 -165 -241 -166s-3 -1 -4 -1c-2 0 -5 1 -7 3c-3 3 -4 6 -2 10c1 1 55 127 166 246
c-10 11 -18 24 -27 35c-3 4 -2 9 1 12l2 2l-51 51h-3v0c-17 0 -34 8 -51 25c-7 7 -12 16 -17 26c-18 38 -21 90 -21 92v10h10c2 0 54 -3 92 -21c11 -5 20 -11 26 -17c18 -18 26 -36 25 -54l51 -51c3 3 8 4 12 1c13 -9 26 -19 39 -29c13 10 26 20 39 29c4 3 9 2 12 -1l51 51
c-1 18 7 36 25 54c7 7 15 12 26 17c38 18 90 21 92 21h10v-10c0 -2 -2 -55 -20 -93c-5 -10 -11 -18 -18 -25c-17 -17 -34 -25 -51 -25zM396 397c-15 -15 -22 -30 -20 -43c1 -9 7 -17 15 -25s16 -14 25 -15c13 -2 28 4 43 19c4 4 7 9 10 15l-59 59c-6 -3 -10 -6 -14 -10z
M397 301c-7 3 -14 8 -20 14s-11 13 -14 20l-43 -44c10 -10 22 -21 34 -33zM52 333c15 -15 29 -21 42 -19c9 1 17 7 25 15s14 17 15 25c2 14 -4 28 -19 43c-4 4 -9 7 -15 10l-59 -59c3 -6 7 -11 11 -15zM113 301l44 -43l33 33l-43 44c-3 -7 -8 -14 -14 -20s-13 -11 -20 -14z
M180 181c-79 -85 -128 -172 -149 -214c40 21 124 71 210 150c-22 21 -42 42 -61 64zM262 123c88 -83 175 -134 217 -156c-22 43 -73 134 -156 221c-23 25 -48 48 -74 69c-12 10 -24 20 -37 29l-51 -52l27 -33c22 -27 47 -53 74 -78zM329 209c7 8 15 17 21 25l-9 9l-43 43
c-9 -7 -19 -15 -28 -22c20 -17 40 -36 59 -55z" />
    <glyph glyph-name="uniF177" unicode="&#xf177;" 
d="M456 379c36 -39 56 -89 56 -139c0 -95 -114 -173 -254 -173c-134 0 -240 70 -255 171c-8 54 -7 113 69 138c14 5 31 6 51 6c29 0 62 -5 90 -9s55 -9 67 -6c3 2 7 5 7 8c1 7 -14 20 -23 28c-13 11 -24 20 -20 31c4 10 17 14 49 14c82 0 134 -38 163 -69zM258 85
c130 0 236 70 236 155c0 118 -104 190 -201 190c-18 0 -26 -1 -30 -2c3 -3 9 -9 13 -12c14 -12 30 -26 29 -42c-1 -9 -6 -17 -16 -23l-3 -1c-16 -4 -43 0 -76 5c-27 4 -59 10 -87 10c-18 0 -33 -3 -45 -7c-59 -19 -66 -59 -57 -117c14 -92 112 -156 237 -156zM163 226
c32 0 57 -17 57 -38s-25 -38 -57 -38s-58 17 -58 38s26 38 58 38zM163 168c23 0 39 10 39 20s-16 20 -39 20s-40 -10 -40 -20s17 -20 40 -20zM175 295c0 -21 -25 -38 -57 -38s-57 17 -57 38s25 39 57 39s57 -18 57 -39zM79 295c0 -10 16 -20 39 -20s39 10 39 20
s-16 21 -39 21s-39 -11 -39 -21zM409 282c30 0 53 -16 53 -36s-23 -35 -53 -35s-53 15 -53 35s23 36 53 36zM409 228c20 0 35 10 35 18s-15 18 -35 18s-35 -10 -35 -18s15 -18 35 -18zM375 319c-21 0 -37 12 -37 26s16 26 37 26s37 -12 37 -26s-16 -26 -37 -26zM375 353
c-12 0 -19 -5 -19 -8s7 -8 19 -8s19 5 19 8s-7 8 -19 8zM310 201c30 0 53 -16 53 -36s-23 -35 -53 -35s-52 15 -52 35s22 36 52 36zM310 148c20 0 35 9 35 17s-15 18 -35 18s-35 -10 -35 -18s15 -17 35 -17z" />
    <glyph glyph-name="uniF178" unicode="&#xf178;" horiz-adv-x="372" 
d="M318 448c30 0 54 -24 54 -54v-404c0 -30 -24 -54 -54 -54h-264c-30 0 -54 24 -54 54v404c0 30 24 54 54 54h264zM354 -10v404c0 20 -16 36 -36 36h-264c-20 0 -36 -16 -36 -36v-404c0 -20 16 -36 36 -36h264c20 0 36 16 36 36zM67 169v18h236v-18h-236zM67 107v18h236
v-18h-236zM67 44v18h119v-18h-119zM67 235v145h236v-145h-236z" />
    <glyph glyph-name="uniF179" unicode="&#xf179;" horiz-adv-x="372" 
d="M318 448c30 0 54 -24 54 -54v-404c0 -30 -24 -54 -54 -54h-264c-30 0 -54 24 -54 54v404c0 30 24 54 54 54h264zM354 -10v404c0 20 -16 36 -36 36h-264c-20 0 -36 -16 -36 -36v-404c0 -20 16 -36 36 -36h264c20 0 36 16 36 36zM67 358v18h236v-18h-236zM67 295v18h236
v-18h-236zM67 232v18h236v-18h-236zM67 169v18h236v-18h-236zM67 107v18h236v-18h-236zM67 44v18h119v-18h-119z" />
    <glyph glyph-name="uniF17A" unicode="&#xf17a;" horiz-adv-x="482" 
d="M428 448c30 0 54 -24 54 -54v-404c0 -30 -24 -54 -54 -54h-264c-30 0 -54 24 -54 54v404c0 30 24 54 54 54h264zM464 -10v404c0 20 -16 36 -36 36h-264c-20 0 -36 -16 -36 -36v-404c0 -20 16 -36 36 -36h264c20 0 36 16 36 36zM177 169v18h236v-18h-236zM177 107v18h236
v-18h-236zM177 44v18h119v-18h-119zM54 -15v414h18v-414h-18zM0 21v342h18v-342h-18zM177 235v145h236v-145h-236z" />
    <glyph glyph-name="uniF17B" unicode="&#xf17b;" horiz-adv-x="482" 
d="M428 448c30 0 54 -24 54 -54v-404c0 -30 -24 -54 -54 -54h-264c-30 0 -54 24 -54 54v404c0 30 24 54 54 54h264zM464 -10v0v404c0 20 -16 36 -36 36h-264c-20 0 -36 -16 -36 -36v-404c0 -20 16 -36 36 -36h264c20 0 36 16 36 36zM177 358v18h236v-18h-236zM177 295v18
h236v-18h-236zM177 232v18h236v-18h-236zM177 169v18h236v-18h-236zM177 107v18h236v-18h-236zM177 44v18h119v-18h-119zM54 -15v414h18v-414h-18zM0 21v342h18v-342h-18z" />
    <glyph glyph-name="uniF17C" unicode="&#xf17c;" 
d="M511 196c1 -3 2 -5 0 -8s-5 -4 -8 -4h-494c-3 0 -6 1 -8 4s-1 5 0 8l109 247c1 3 5 5 9 5h274c4 0 8 -2 9 -5zM23 202h466l-101 228h-264zM5 118v18h502v-18h-502zM5 54v18h502v-18h-502zM5 -10v18h502v-18h-502z" />
    <glyph glyph-name="uniF17D" unicode="&#xf17d;" horiz-adv-x="490" 
d="M98 -64c-19 0 -43 9 -71 34c-18 17 -27 36 -27 57c0 42 38 77 40 78l320 320c20 18 68 41 107 2s19 -85 4 -104v-1l-275 -267c-13 -12 -44 -26 -73 3s-14 61 -2 74l205 206l13 -13l-206 -205c-2 -2 -22 -26 2 -50c25 -25 48 -4 49 -3l274 267c3 5 32 44 -4 80
c-37 37 -80 1 -82 -1l-320 -321c-1 -1 -34 -32 -34 -66c0 -16 7 -30 21 -43c56 -51 87 -23 104 -7c2 2 4 4 6 5l203 203l12 -13l-204 -204c-1 -1 -3 -2 -5 -4c-10 -9 -29 -27 -57 -27z" />
    <glyph glyph-name="uniF17E" unicode="&#xf17e;" 
d="M475 165c20 0 37 -17 37 -37s-17 -36 -37 -36c-7 0 -14 2 -20 6c-37 -33 -85 -54 -138 -54c-27 0 -53 6 -76 15l69 -69c3 2 6 3 10 3c11 0 19 -9 19 -20s-8 -19 -19 -19s-20 8 -20 19c0 4 1 7 3 10l-87 88c-9 5 -17 10 -25 16c-5 -3 -11 -4 -17 -4c-20 0 -37 16 -37 36
c0 7 2 14 6 20c-2 4 -4 7 -6 11l-107 107c-3 -2 -7 -3 -11 -3c-11 0 -19 9 -19 20s8 19 19 19s20 -8 20 -19c0 -4 -1 -7 -3 -10l89 -89c-9 23 -15 49 -15 76c0 56 23 107 59 144c-3 5 -4 10 -4 16c0 20 16 37 36 37s37 -17 37 -37s-17 -36 -37 -36c-7 0 -14 2 -20 6
c-33 -34 -53 -79 -53 -130c0 -37 11 -71 29 -100c5 3 11 5 17 5c20 0 37 -17 37 -37c0 -7 -2 -13 -6 -19c31 -23 70 -38 112 -38c49 0 93 19 126 50c-3 5 -4 10 -4 16c0 20 16 37 36 37zM201 430c-10 0 -18 -9 -18 -19s8 -18 18 -18s19 8 19 18s-9 19 -19 19zM174 101
c10 0 18 8 18 18s-8 18 -18 18s-18 -8 -18 -18s8 -18 18 -18zM475 110c10 0 19 8 19 18s-9 19 -19 19s-18 -9 -18 -19c0 -3 1 -5 2 -7l9 -9c2 -1 4 -2 7 -2z" />
    <glyph glyph-name="uniF17F" unicode="&#xf17f;" horiz-adv-x="509" 
d="M470 421c69 -69 30 -180 9 -210c-18 -26 -56 -79 -108 -130c-49 -49 -109 -95 -135 -112c-45 -29 -139 -60 -205 7c-10 10 -20 21 -28 35c-6 11 -3 27 9 46c21 34 69 79 107 76c16 -1 31 -9 46 -24c14 -14 25 -31 31 -43l187 186c-11 6 -28 17 -41 30
c-15 15 -23 30 -25 46c-5 37 35 83 66 104c23 15 43 20 56 12c12 -7 22 -14 31 -23z" />
    <glyph glyph-name="uniF180" unicode="&#xf180;" horiz-adv-x="509" 
d="M31 -25c-10 10 -20 22 -28 36c-6 11 -3 27 9 46c21 34 69 79 107 76c16 -1 31 -9 46 -24c14 -14 24 -31 31 -43l187 186c-11 6 -27 16 -41 30c-15 15 -23 31 -25 47c-5 37 35 82 66 103c23 15 43 20 56 12c12 -7 22 -14 31 -23c69 -69 30 -180 9 -210
c-18 -26 -56 -79 -108 -130c-49 -49 -109 -95 -135 -112c-45 -29 -138 -61 -205 6zM149 93c-11 11 -22 16 -32 17c-23 2 -60 -29 -81 -58c-13 -18 -14 -28 -13 -29c7 -12 15 -22 24 -31c69 -69 166 -10 177 -3c25 16 84 61 131 108c50 50 87 101 105 127
c21 30 50 125 -6 181c-7 7 -16 13 -26 19c-3 2 -15 0 -32 -11c-29 -20 -60 -57 -57 -81c1 -11 9 -23 20 -34c20 -20 48 -33 48 -33l16 -6l-234 -233l-7 16s-13 31 -33 51z" />
    <glyph glyph-name="uniF181" unicode="&#xf181;" 
d="M421 191l91 -46v-35l-91 29c-2 -12 -12 -21 -24 -21c-13 0 -23 11 -23 24v11l-81 25v-95c0 -5 -2 -15 -6 -31l61 -50v-34l-75 14h-6c-1 -3 -1 -6 -2 -9l-10 -31l-10 34c-1 2 -1 4 -2 6l-4 -1l-75 -13v34l61 49c-4 16 -6 27 -6 32v92l-81 -23v-10c0 -13 -10 -24 -23 -24
c-12 0 -23 9 -24 21l-91 -25v34l91 44v37h47v-14l81 39v158c0 20 16 36 36 36h2c20 0 36 -16 36 -36v-155l81 -42v14h47v-38z" />
    <glyph glyph-name="uniF182" unicode="&#xf182;" horiz-adv-x="499" 
d="M248 -64l-8 27s-3 12 -8 29l-77 -14v45l56 46c-4 18 -5 24 -5 27v76l-60 -17v-4c0 -17 -13 -30 -30 -30c-12 0 -22 7 -27 18l-89 -25v48l86 42v25c0 2 1 4 1 6l1 7h56l2 -7v-2l60 29v144c0 23 19 42 42 42h2c23 0 42 -19 42 -42v-142l61 -31v2l2 7h56l1 -7
c0 -2 1 -4 1 -6v-26l86 -44v-48l-89 27c-5 -10 -15 -17 -27 -17c-17 0 -31 13 -31 30v5l-60 18v-78c0 -3 -1 -10 -5 -27l57 -46v-45l-78 14c-5 -17 -9 -29 -9 -29zM232 10h12l2 -7c1 -3 2 -5 3 -8c1 3 1 5 2 8l2 7h22v-2l52 -9v16l-59 48l1 5c5 20 6 25 6 27v103l95 -29v-18
c0 -7 6 -13 13 -13s11 5 12 12l1 10l85 -26v15l-86 43v32h-25v-18l-95 48v152c0 14 -11 25 -25 25h-2c-14 0 -24 -11 -24 -25v-155l-95 -46v19h-26v-31l-86 -42v-14l85 24l1 -11c1 -7 6 -11 13 -11s13 5 13 12v17l95 27v-99c0 -2 0 -8 5 -28l1 -6l-58 -47v-16l52 9v1z" />
    <glyph glyph-name="uniF183" unicode="&#xf183;" horiz-adv-x="503" 
d="M252 95c-5 0 -10 5 -10 10v334c0 5 5 9 10 9s9 -4 9 -9v-334c0 -5 -4 -10 -9 -10zM429 365c46 -46 74 -108 74 -177c0 -139 -112 -252 -251 -252s-252 113 -252 252c0 69 28 132 73 177l13 -13c-42 -42 -68 -100 -68 -164c0 -129 105 -234 234 -234s233 105 233 234
c0 64 -27 122 -69 164z" />
    <glyph glyph-name="uniF184" unicode="&#xf184;" horiz-adv-x="485" 
d="M437 416c27 0 48 -21 48 -48v-237c0 -27 -21 -48 -48 -48h-104l36 -142l-19 -5l-37 147h-139l-38 -147l-18 5l36 142h-106c-27 0 -48 21 -48 48v237c0 27 21 48 48 48h389zM466 131v237c0 16 -13 29 -29 29h-389c-16 0 -29 -13 -29 -29v-237c0 -16 13 -29 29 -29h389
c16 0 29 13 29 29zM177 429v19h133v-19h-133zM243 370c67 0 121 -53 121 -120s-54 -121 -121 -121s-121 54 -121 121s54 120 121 120zM253 351v-78l55 54c-15 13 -34 22 -55 24zM141 250c0 -56 46 -102 102 -102c13 0 26 2 38 7l-47 95v0v101c-52 -5 -93 -48 -93 -101z
M298 164c28 18 46 50 46 86c0 24 -9 46 -23 64l-65 -65zM393 341c0 13 6 19 19 19s20 -6 20 -19s-7 -20 -20 -20s-19 7 -19 20z" />
    <glyph glyph-name="uniF185" unicode="&#xf185;" 
d="M465 309c26 0 47 -20 47 -46v-193c0 -26 -21 -46 -47 -46h-48l11 -31h-344l12 31h-49c-26 0 -47 20 -47 46v193c0 26 21 46 47 46h48v83c0 31 25 56 56 56h217c31 0 56 -25 56 -56v-83h41zM113 392v-83h292v83c0 21 -16 37 -37 37h-217c-21 0 -38 -16 -38 -37zM435 42v65
c0 21 -16 38 -37 38h-283c-21 0 -38 -17 -38 -38v-65h25l27 75h20l-34 -105h283l-33 105h21l25 -75h24zM493 70v193c0 15 -13 28 -28 28h-418c-15 0 -28 -13 -28 -28v-193c0 -15 13 -28 28 -28h12v65c0 31 25 56 56 56h283c31 0 56 -25 56 -56v-65h11c15 0 28 13 28 28z
M91 232c0 13 8 20 21 20s20 -7 20 -20s-7 -21 -20 -21s-21 8 -21 21zM177 80v18h158v-18h-158zM162 42v19h187v-19h-187z" />
    <glyph glyph-name="uniF186" unicode="&#xf186;" 
d="M491 448c11 0 21 -13 21 -29s-10 -29 -21 -29h-11v-319h-202l92 -92l-13 -14l-92 93v-80h-19v79l-92 -92l-13 14l93 92h-203v319h-10c-11 0 -21 13 -21 29s10 29 21 29h470zM461 90v300h-412v-300h412zM490 408c1 1 3 5 3 11s-2 9 -3 10h-468c-1 -1 -3 -4 -3 -10
s2 -10 3 -11h468zM127 150v107h37v-107h-37zM202 150v191h37v-191h-37zM276 150v70h38v-70h-38zM351 150v163h37v-163h-37z" />
    <glyph glyph-name="uniF187" unicode="&#xf187;" 
d="M491 448c11 0 21 -13 21 -29s-10 -29 -21 -29h-11v-319h-202l92 -92l-13 -14l-92 93v-80h-19v79l-92 -92l-13 14l93 92h-203v319h-10c-11 0 -21 13 -21 29s10 29 21 29h470zM461 90v300h-412v-300h412zM490 408c1 1 3 5 3 11s-2 9 -3 10h-468c-1 -1 -3 -4 -3 -10
s2 -10 3 -11h468zM194 223l-49 -60l-29 24l69 85l90 -54l98 125l30 -23l-119 -150z" />
    <glyph glyph-name="uniF188" unicode="&#xf188;" 
d="M491 448c11 0 21 -13 21 -29s-10 -29 -21 -29h-11v-319h-202l92 -92l-13 -14l-92 93v-80h-19v79l-92 -92l-13 14l93 92h-203v319h-10c-11 0 -21 13 -21 29s10 29 21 29h470zM461 90v300h-412v-300h412zM490 408c1 1 3 5 3 11s-2 9 -3 10h-468c-1 -1 -3 -4 -3 -10
s2 -10 3 -11h468z" />
    <glyph glyph-name="uniF189" unicode="&#xf189;" 
d="M148 440c3 -8 -4 -13 -15 -22c-15 -12 -40 -32 -49 -59c30 -10 39 -34 37 -53c-3 -24 -24 -49 -53 -49c-20 0 -36 7 -48 19c-15 15 -20 36 -20 50c-1 26 9 51 29 72c31 33 80 50 103 50c4 0 13 0 16 -8zM293 440c3 -8 -4 -13 -15 -22c-15 -12 -40 -32 -49 -59
c30 -10 39 -34 37 -53c-3 -24 -23 -49 -52 -49c-20 0 -37 7 -49 19c-15 15 -20 36 -20 50c-1 26 9 51 29 72c31 33 80 50 103 50c4 0 13 0 16 -8zM512 196c1 -19 -7 -39 -22 -55c-24 -26 -61 -38 -78 -38c-3 0 -11 0 -14 7c-3 8 3 13 12 20c11 8 28 22 35 40
c-22 9 -29 26 -27 40c2 19 18 39 41 39c15 0 29 -5 38 -15c11 -12 15 -27 15 -38zM404 196c1 -19 -6 -39 -21 -55c-24 -26 -61 -38 -78 -38c-3 0 -11 0 -14 7c-3 8 3 13 12 20c11 8 27 22 34 40c-22 9 -28 26 -26 40c2 19 18 39 41 39c15 0 28 -5 38 -15
c11 -12 14 -27 14 -38z" />
    <glyph glyph-name="uniF18A" unicode="&#xf18a;" horiz-adv-x="348" 
d="M54 301c-5 0 -9 4 -9 9v120c0 4 3 8 7 9l47 9c3 0 5 0 7 -2s3 -4 3 -7v-34h26v34c0 5 4 9 9 9h62c5 0 9 -4 9 -9v-34h25v34c0 3 2 5 4 7s4 3 7 2l45 -9c4 -1 7 -5 7 -9v-120c0 -5 -4 -9 -9 -9h-240zM62 423v-104h223v104l-27 5v-32c0 -5 -4 -9 -9 -9h-43c-5 0 -9 4 -9 9
v34h-44v-34c0 -5 -4 -9 -9 -9h-44c-5 0 -9 4 -9 9v32zM65 267v18h214v-18h-214zM339 34c5 0 9 -4 9 -9v-80c0 -5 -4 -9 -9 -9h-330c-5 0 -9 4 -9 9v80c0 5 4 9 9 9h36c5 24 20 67 44 75v130c0 5 4 9 9 9h153c5 0 9 -4 9 -9v-130c23 -9 38 -51 43 -75h36zM107 230v-119h135
v119h-135zM97 92c-13 0 -29 -33 -34 -58h222c-5 25 -22 58 -34 58h-154zM330 -46v0v62h-35h-242h-35v-62h312z" />
    <glyph glyph-name="uniF18B" unicode="&#xf18b;" 
d="M497 362c21 -21 21 -53 0 -74l-337 -337c-10 -10 -23 -15 -37 -15s-27 5 -37 15l-71 71c-21 21 -21 53 0 74l337 337c10 10 23 15 37 15s27 -5 37 -15zM483 301c6 6 10 15 10 24s-4 18 -10 24l-70 70c-6 6 -15 10 -24 10s-18 -4 -24 -10l-15 -15l54 -54l-13 -13l-54 54
l-15 -15l31 -31l-13 -14l-32 32l-24 -25l31 -31l-13 -13l-31 31l-15 -15l54 -54l-13 -13l-54 54l-15 -15l31 -31l-13 -14l-32 32l-24 -25l32 -31l-14 -13l-31 31l-15 -15l54 -54l-13 -13l-54 54l-20 -20l27 -26l-13 -14l-27 27l-24 -24l26 -27l-13 -13l-27 27l-19 -20
l54 -54l-13 -14l-55 55l-16 -17c-13 -13 -13 -35 0 -48l70 -70c6 -6 15 -10 24 -10s18 4 24 10z" />
    <glyph glyph-name="uniF18C" unicode="&#xf18c;" horiz-adv-x="383" 
d="M341 319c23 0 42 -19 42 -42v-299c0 -23 -19 -42 -42 -42h-299c-23 0 -42 19 -42 42v299c0 23 19 42 42 42h139v129h20v-129h140zM365 -22v0v299c0 13 -11 24 -24 24h-140v-130l55 55l13 -13l-77 -78l-78 78l13 13l54 -54v129h-139c-13 0 -24 -11 -24 -24v-299
c0 -13 11 -24 24 -24h299c13 0 24 11 24 24z" />
    <glyph glyph-name="uniF18D" unicode="&#xf18d;" horiz-adv-x="510" 
d="M507 273c2 -1 3 -3 3 -6c0 -37 -33 -66 -99 -90c-68 -25 -132 -27 -155 -27h-2c-4 -16 -17 -28 -34 -28c-4 0 -8 1 -11 2l-30 -80c7 4 15 5 24 5c31 0 57 -25 57 -56s-26 -57 -57 -57s-56 26 -56 57c0 9 2 18 6 26l43 113c-1 1 -3 2 -4 4l-113 -41c-7 -3 -14 -5 -22 -5
c-31 0 -57 26 -57 57s26 57 57 57s56 -26 56 -57c0 -9 -2 -17 -6 -25l78 28c-1 2 -1 5 -1 8c0 17 12 30 28 34c0 21 2 88 28 158c24 66 54 98 91 98c3 0 5 -1 6 -3s2 -6 1 -8l-100 -249c5 -3 9 -7 12 -12l250 98c2 1 5 0 7 -1zM15 147c0 -23 19 -41 42 -41c5 0 9 0 14 2l2 1
c15 6 25 21 25 38c0 23 -18 41 -41 41s-42 -18 -42 -41zM244 -7c0 23 -18 41 -41 41s-41 -18 -41 -41s18 -42 41 -42s41 19 41 42zM254 344c-21 -57 -26 -113 -27 -141l92 228c-15 -4 -41 -21 -65 -87zM220 138c11 0 19 8 19 19v1v0c0 11 -8 20 -19 20s-20 -9 -20 -20
s9 -20 20 -20zM406 191c66 24 84 49 88 64l-229 -90c28 1 83 5 141 26z" />
    <glyph glyph-name="uniF18E" unicode="&#xf18e;" 
d="M256 448c141 0 256 -115 256 -256s-115 -256 -256 -256s-256 115 -256 256s115 256 256 256zM265 -46c124 5 225 105 229 229h-58v18h58c-5 124 -105 224 -229 229v-54h-18v54c-124 -5 -224 -105 -229 -229h54v-18h-54c4 -124 105 -224 229 -229v58h18v-58zM264 345v-144
h134v-18h-134v-36h98v-18h-98v-36h71v-18h-71v-26h-18v26h-72v18h72v36h-98v18h98v36h-134v18h134v144h18z" />
    <glyph glyph-name="uniF18F" unicode="&#xf18f;" 
d="M326 448c103 0 186 -83 186 -186s-83 -187 -186 -187c-49 0 -93 19 -126 50l-186 -186l-14 15l185 185c-29 33 -46 76 -46 123c0 103 84 186 187 186zM326 95c92 0 166 75 166 167s-74 166 -166 166s-167 -74 -167 -166s75 -167 167 -167zM335 269h111v-20h-111v-111h-20
v111h-111v20h111v111h20v-111z" />
    <glyph glyph-name="uniF190" unicode="&#xf190;" 
d="M326 448c103 0 186 -83 186 -186s-83 -187 -186 -187c-49 0 -93 19 -126 50l-186 -186l-14 15l185 185c-29 33 -46 76 -46 123c0 103 84 186 187 186zM326 95c92 0 166 75 166 167s-74 166 -166 166s-167 -74 -167 -166s75 -167 167 -167zM204 249v20h242v-20h-242z" />
    <glyph glyph-name="uniF191" unicode="&#xf191;" 
d="M326 448c103 0 186 -83 186 -186s-83 -187 -186 -187c-49 0 -93 19 -126 50l-186 -186l-14 15l185 185c-29 33 -46 76 -46 123c0 103 84 186 187 186zM326 95c92 0 166 75 166 167s-74 166 -166 166s-167 -74 -167 -166s75 -167 167 -167z" />
    <glyph glyph-name="uniF192" unicode="&#xf192;" 
d="M0 448h512v-324h-512v324zM494 142v288h-476v-288h476zM50 173v228h18v-228h-18zM95 173v228h18v-228h-18zM140 173v228h18v-228h-18zM355 173v228h18v-228h-18zM400 173v228h18v-228h-18zM445 173v228h18v-228h-18zM233 362c0 18 9 27 27 27s27 -9 27 -27
s-9 -27 -27 -27s-27 9 -27 27zM242 266c0 12 6 18 18 18s18 -6 18 -18s-6 -18 -18 -18s-18 6 -18 18zM242 203c0 12 6 18 18 18s18 -6 18 -18s-6 -18 -18 -18s-18 6 -18 18z" />
    <glyph glyph-name="uniF193" unicode="&#xf193;" 
d="M512 207v-40c0 -17 -13 -30 -30 -30h-38c-6 -19 -14 -37 -25 -53l22 -21c12 -12 12 -31 0 -43l-28 -28c-12 -12 -31 -12 -43 0l-26 25c-14 -7 -28 -11 -43 -15v-36c0 -17 -13 -30 -30 -30h-40c-17 0 -30 13 -30 30v38c-16 5 -32 12 -46 21l-28 -28c-12 -12 -31 -12 -43 0
l-28 28c-12 12 -12 31 0 43l29 29c-7 12 -13 26 -17 40h-38c-17 0 -30 13 -30 30v40c0 17 13 30 30 30h36c4 15 9 29 16 43l-31 31c-12 12 -12 31 0 43l28 28c12 12 31 12 43 0l26 -27c16 10 34 20 53 25v38c0 17 13 30 30 30h40c17 0 30 -13 30 -30v-36
c18 -4 35 -10 50 -19l24 24c12 12 31 12 43 0l28 -28c12 -12 12 -31 0 -43l-23 -23c10 -17 18 -36 23 -56h36c17 0 30 -13 30 -30zM361 192c0 58 -47 105 -105 105s-105 -47 -105 -105s47 -105 105 -105s105 47 105 105z" />
    <glyph glyph-name="uniF194" unicode="&#xf194;" 
d="M271 429h-40c-6 0 -11 -5 -11 -11v-38v-14l-14 -4c-17 -5 -32 -12 -47 -22l-13 -9l-11 11l-27 27c-2 2 -5 3 -8 3s-6 -1 -8 -3l-28 -28c-2 -2 -3 -5 -3 -8s1 -7 3 -9l31 -30l9 -10l-6 -12c-6 -12 -11 -25 -14 -39l-3 -15h-15h-36c-6 0 -11 -5 -11 -11v-40
c0 -6 5 -11 11 -11h38h14l4 -14c4 -13 9 -25 15 -36l7 -12l-10 -10l-29 -30c-4 -4 -4 -12 0 -16l28 -28c2 -2 5 -3 8 -3s6 1 8 3l28 28l11 10l12 -7c13 -8 28 -15 42 -19l14 -4v-14v-38c0 -6 5 -11 11 -11h40c6 0 11 5 11 11v36v15l15 3c14 3 27 8 39 14l12 6l10 -9l25 -26
c2 -2 6 -3 9 -3s6 1 8 3l28 28c4 4 4 12 0 16l-22 22l-11 11l9 13c10 15 17 30 22 47l4 14h14h38c6 0 11 5 11 11v40c0 6 -5 11 -11 11h-36h-15l-3 15c-4 18 -11 35 -21 51l-7 12l10 11l23 23c4 4 4 12 0 16l-28 28c-2 2 -5 3 -8 3s-7 -1 -9 -3l-24 -24l-10 -10l-12 7
c-14 8 -29 13 -45 17l-15 3v15v36c0 6 -5 11 -11 11zM256 68c-68 0 -124 56 -124 124s56 124 124 124s124 -56 124 -124s-56 -124 -124 -124zM271 448v0c17 0 30 -13 30 -30v-36c18 -4 35 -10 50 -19l24 24c6 6 14 9 22 9s15 -3 21 -9l28 -28c12 -12 12 -31 0 -43l-23 -23
c10 -17 18 -36 23 -56h36c17 0 30 -13 30 -30v-40c0 -17 -13 -30 -30 -30h-38c-6 -19 -14 -37 -25 -53l22 -21c12 -12 12 -31 0 -43l-28 -28c-6 -6 -14 -9 -22 -9s-15 3 -21 9l-26 26c-14 -7 -28 -12 -43 -16v-36c0 -17 -13 -30 -30 -30h-40c-17 0 -30 13 -30 30v38
c-16 5 -32 12 -46 21l-28 -28c-6 -6 -14 -9 -22 -9s-15 3 -21 9l-28 28c-12 12 -12 31 0 43l29 29c-7 12 -13 26 -17 40h-38c-17 0 -30 13 -30 30v40c0 17 13 30 30 30h36c4 15 9 29 16 43l-31 31c-12 12 -12 31 0 43l28 28c6 6 13 9 21 9s16 -3 22 -9l26 -27
c16 11 34 19 53 25v38c0 17 13 30 30 30h40zM256 87v0c58 0 105 47 105 105s-47 105 -105 105s-105 -47 -105 -105s47 -105 105 -105z" />
    <glyph glyph-name="uniF195" unicode="&#xf195;" horiz-adv-x="380" 
d="M339 316c23 0 41 -18 41 -41v-297c0 -23 -18 -42 -41 -42h-297c-23 0 -42 19 -42 42v297c0 23 19 41 42 41h138v95l-54 -54l-13 13l77 78l78 -78l-13 -13l-56 56v-97h140zM363 -22v0v297c0 14 -10 24 -24 24h-140v-163h-19v163h-138c-14 0 -25 -10 -25 -24v-297
c0 -14 11 -25 25 -25h297c14 0 24 11 24 25z" />
    <glyph glyph-name="uniF196" unicode="&#xf196;" horiz-adv-x="449" 
d="M225 448c112 0 224 -34 224 -104c0 -63 -6 -117 -16 -162c-42 -187 -154 -233 -194 -243c-9 -2 -15 -3 -15 -3s-156 16 -208 245c-10 45 -16 99 -16 163c0 70 112 104 224 104h1zM430 344c0 54 -99 84 -196 86v-146c84 -1 166 -13 193 -17c2 24 3 50 3 77zM215 430
c-97 -2 -197 -32 -197 -86c0 -27 2 -53 4 -77c24 4 107 16 193 17v146zM34 185c40 -179 147 -220 181 -229v310c-86 -1 -169 -13 -191 -17c3 -22 5 -44 10 -64zM235 -43c41 11 141 55 180 229c4 20 7 41 10 63c-26 4 -107 16 -191 17v-310z" />
    <glyph glyph-name="uniF197" unicode="&#xf197;" 
d="M357 365c39 -39 39 -87 0 -126l-13 13c32 32 32 68 0 100zM399 407c32 -32 49 -69 49 -105s-17 -73 -49 -105l-13 13c29 29 44 60 44 92s-15 63 -44 92zM443 448c45 -45 69 -96 69 -146s-24 -101 -69 -146l-13 13c42 42 63 87 63 133s-21 91 -63 133zM327 296v-1v-1
c-4 -35 -34 -63 -71 -63c-39 0 -71 31 -72 70v1v0v1c0 39 33 71 72 71c38 0 69 -30 71 -67c0 -2 1 -3 1 -5s-1 -4 -1 -6zM155 365l13 -13c-16 -16 -24 -33 -24 -50s8 -34 24 -50l-13 -13c-19 19 -30 41 -30 63s11 44 30 63zM126 394c-29 -29 -44 -60 -44 -92s15 -63 44 -92
l-13 -13c-32 32 -49 69 -49 105s17 73 49 105zM82 435c-42 -42 -63 -87 -63 -133s21 -91 63 -133l-13 -13c-45 45 -69 96 -69 146s24 101 69 146z" />
    <glyph glyph-name="uniF198" unicode="&#xf198;" 
d="M109 280c23 0 42 -15 47 -37h355v-19h-354c-4 -23 -24 -40 -48 -40s-44 18 -48 41h-60v18h61c5 21 24 37 47 37zM109 202c16 0 30 14 30 30s-14 30 -30 30s-30 -14 -30 -30s14 -30 30 -30zM258 108c24 0 43 -17 47 -39h206v-19h-206c-4 -22 -23 -39 -47 -39
s-44 17 -48 39h-210v19h210c4 22 24 39 48 39zM258 30c16 0 30 13 30 29s-14 30 -30 30s-30 -14 -30 -30s14 -29 30 -29zM426 409h86v-19h-86c-4 -22 -23 -39 -47 -39s-44 17 -48 39h-331v19h331c4 22 24 39 48 39s43 -17 47 -39zM379 370c16 0 30 14 30 30s-14 29 -30 29
s-30 -13 -30 -29s14 -30 30 -30z" />
    <glyph glyph-name="uniF199" unicode="&#xf199;" horiz-adv-x="445" 
d="M375 192l68 -118c2 -3 2 -6 0 -9s-4 -4 -7 -4h-137l-69 -121c-2 -3 -5 -4 -8 -4s-5 1 -7 4l-70 121h-136c-3 0 -6 1 -8 4s-2 6 0 9l68 118l-68 118c-2 3 -2 6 0 9s5 4 8 4h136l70 121c2 3 4 4 7 4s6 -1 8 -4l69 -121h137c3 0 5 -1 7 -4s2 -6 0 -9zM421 306h-111l55 -96z
M355 192l-66 114h-133l-66 -114l66 -114h133zM222 422l-56 -99h113zM24 306l56 -96l55 96h-111zM24 78h111l-55 96zM222 -38l57 99h-113zM310 78h111l-56 96z" />
    <glyph glyph-name="uniF19A" unicode="&#xf19a;" 
d="M509 445c4 -3 3 -8 0 -12l-270 -280c-2 -2 -4 -3 -6 -3s-4 2 -6 3l-154 135c-4 3 -4 8 -1 12s8 4 12 1l148 -129l264 273c3 4 9 3 13 0zM432 48v242h18v-242c0 -31 -25 -56 -56 -56h-338c-31 0 -56 25 -56 56v339c0 31 25 55 56 55h286v-18h-286c-21 0 -38 -16 -38 -37
v-339c0 -21 17 -38 38 -38h338c21 0 38 17 38 38z" />
    <glyph glyph-name="uniF19B" unicode="&#xf19b;" 
d="M448 99c36 -2 64 -20 64 -43c0 -24 -30 -44 -68 -44s-69 20 -69 44c0 21 22 37 52 42l-28 39c-4 0 -8 -1 -13 -1c-63 0 -113 30 -113 69c0 20 14 39 36 51l-55 48c-26 -18 -66 -30 -110 -30c-4 0 -6 1 -10 1l1 -76c55 -5 95 -33 95 -68c0 -12 -4 -22 -12 -32l46 -41
c9 2 18 4 28 4c38 0 68 -19 68 -43s-30 -44 -68 -44s-69 20 -69 44c0 13 9 23 22 31l-41 37c-21 -15 -52 -24 -87 -24h-11l-14 -39c32 -4 56 -21 56 -42c0 -24 -30 -43 -68 -43s-69 19 -69 43c0 23 27 41 62 43l14 40c-48 8 -83 34 -83 66c0 38 49 69 112 69l-1 76
c-66 8 -115 42 -115 85c0 49 63 87 144 87c65 0 119 -24 138 -59l84 -7c2 23 31 40 68 40c38 0 69 -19 69 -43c0 -23 -27 -41 -62 -43l-24 -64c48 -8 82 -35 82 -67c0 -31 -33 -57 -79 -66zM130 -18c0 12 -21 25 -50 25s-50 -13 -50 -25s21 -25 50 -25s50 13 50 25zM342 19
c0 12 -21 24 -50 24s-50 -12 -50 -24s21 -25 50 -25s50 13 50 25zM212 131c0 27 -44 51 -95 51s-95 -24 -95 -51s44 -50 95 -50s95 23 95 50zM434 403c-29 0 -50 -12 -50 -24s21 -25 50 -25s50 13 50 25s-21 24 -50 24zM18 361c0 -37 58 -68 126 -68s126 31 126 68
s-58 69 -126 69s-126 -32 -126 -69zM268 316l59 -52c17 6 37 10 59 10h12l23 62c-23 3 -42 13 -50 27l-83 7c0 -3 1 -6 1 -9c0 -17 -8 -32 -21 -45zM291 205c0 -27 44 -50 95 -50s94 23 94 50s-43 51 -94 51s-95 -24 -95 -51zM444 31c29 0 50 13 50 25s-21 24 -50 24
s-50 -12 -50 -24s21 -25 50 -25z" />
    <glyph glyph-name="uniF19C" unicode="&#xf19c;" 
d="M503 93c5 0 9 -4 9 -9s-4 -9 -9 -9h-130v-130c0 -5 -4 -9 -9 -9s-9 4 -9 9v130h-198v-130c0 -5 -4 -9 -9 -9s-9 4 -9 9v130h-130c-5 0 -9 4 -9 9s4 9 9 9h130v198h-130c-5 0 -9 4 -9 9s4 9 9 9h130v130c0 5 4 9 9 9s9 -4 9 -9v-130h198v130c0 5 4 9 9 9s9 -4 9 -9v-130
h130c5 0 9 -4 9 -9s-4 -9 -9 -9h-130v-198h130zM157 93h198v198h-198v-198zM440 329c-25 0 -46 21 -46 46s21 46 46 46s46 -21 46 -46s-21 -46 -46 -46zM440 403c-15 0 -28 -13 -28 -28s13 -28 28 -28s28 13 28 28s-13 28 -28 28zM256 238c25 0 46 -21 46 -46
s-21 -46 -46 -46s-46 21 -46 46s21 46 46 46zM256 164c15 0 28 13 28 28s-13 28 -28 28s-28 -13 -28 -28s13 -28 28 -28zM256 50c25 0 46 -21 46 -46s-21 -46 -46 -46s-46 21 -46 46s21 46 46 46zM256 -24c15 0 28 13 28 28s-13 28 -28 28s-28 -13 -28 -28s13 -28 28 -28z
M445 50c25 0 46 -21 46 -46s-21 -46 -46 -46s-46 21 -46 46s21 46 46 46zM445 -24c15 0 28 13 28 28s-13 28 -28 28s-28 -13 -28 -28s13 -28 28 -28zM30 335c-4 4 -4 8 0 12l29 29l-29 29c-4 4 -4 9 0 13s8 4 12 0l29 -29l29 29c4 4 9 4 13 0s4 -9 0 -13l-29 -29l29 -29
c4 -4 4 -8 0 -12c-2 -2 -4 -3 -6 -3s-5 1 -7 3l-29 29l-29 -29c-2 -2 -4 -3 -6 -3s-4 1 -6 3zM214 335c-4 4 -4 8 0 12l29 29l-29 29c-4 4 -4 9 0 13s9 4 13 0l29 -29l29 29c4 4 9 4 13 0s4 -9 0 -13l-29 -29l29 -29c4 -4 4 -8 0 -12c-2 -2 -5 -3 -7 -3s-4 1 -6 3l-29 29
l-29 -29c-2 -2 -4 -3 -6 -3s-5 1 -7 3zM25 150c-4 4 -4 9 0 13l29 29l-29 29c-4 4 -4 9 0 13s9 4 13 0l29 -29l29 29c4 4 9 4 13 0s4 -9 0 -13l-29 -29l29 -29c4 -4 4 -9 0 -13c-2 -2 -4 -2 -6 -2s-5 0 -7 2l-29 29l-29 -29c-2 -2 -4 -2 -6 -2s-5 0 -7 2zM403 150
c-4 4 -4 9 0 13l29 29l-29 29c-4 4 -4 9 0 13s9 4 13 0l29 -29l29 29c4 4 9 4 13 0s4 -9 0 -13l-29 -29l29 -29c4 -4 4 -9 0 -13c-2 -2 -5 -2 -7 -2s-4 0 -6 2l-29 29l-29 -29c-2 -2 -5 -2 -7 -2s-4 0 -6 2z" />
    <glyph glyph-name="uniF19D" unicode="&#xf19d;" 
d="M256 448c141 0 256 -115 256 -256s-115 -256 -256 -256s-256 115 -256 256s115 256 256 256zM256 -46c131 0 238 107 238 238s-107 238 -238 238s-238 -107 -238 -238s107 -238 238 -238zM382 322c3 4 10 4 13 0c4 -4 4 -9 0 -13l-115 -115c2 -3 3 -7 3 -11
c0 -15 -12 -27 -27 -27s-27 12 -27 27c0 4 0 8 2 11l-73 74c-4 4 -4 9 0 13s8 4 12 0l74 -74c4 2 8 3 12 3s7 -1 11 -3zM229 3c0 18 9 27 27 27s27 -9 27 -27s-9 -27 -27 -27s-27 9 -27 27zM229 372c0 18 9 27 27 27s27 -9 27 -27s-9 -27 -27 -27s-27 9 -27 27zM418 183
c0 18 8 27 26 27s27 -9 27 -27s-9 -27 -27 -27s-26 9 -26 27zM49 183c0 18 9 27 27 27s27 -9 27 -27s-9 -27 -27 -27s-27 9 -27 27z" />
    <glyph glyph-name="uniF19E" unicode="&#xf19e;" horiz-adv-x="457" 
d="M395 329h20v-1l-40 -342c0 -27 -22 -50 -49 -50h-194c-27 0 -50 23 -50 50l-39 342v1h20l39 -341v-1v-1c0 -16 14 -30 30 -30h194c16 0 30 14 30 30v1v1zM318 379h139v-19h-457v19h134v9c0 33 27 60 60 60h64c33 0 60 -27 60 -60v-9zM298 379v0v9c0 22 -18 40 -40 40h-64
c-22 0 -40 -18 -40 -40v-9h144zM171 -17l-20 -1l-22 329h20zM219 -18v329h20v-329h-20zM311 311h20l-26 -329l-20 1z" />
    <glyph glyph-name="uniF19F" unicode="&#xf19f;" horiz-adv-x="432" 
d="M386 217c26 0 46 -21 46 -46v-189c0 -26 -20 -46 -46 -46h-340c-26 0 -46 20 -46 46v189c0 25 20 46 46 46h40v101c0 72 58 130 130 130c65 0 119 -47 129 -109h-19c-10 51 -56 91 -110 91c-62 0 -112 -50 -112 -112v-101h282zM226 96c5 3 9 9 9 16c0 10 -9 19 -19 19
s-18 -9 -18 -19c0 -7 4 -13 9 -16v-45h19v45z" />
    <glyph glyph-name="uniF1A0" unicode="&#xf1a0;" horiz-adv-x="433" 
d="M386 217c25 0 47 -21 47 -46v-189c0 -25 -22 -46 -47 -46h-340c-25 0 -46 21 -46 46v189c0 25 21 46 46 46h40v101c0 72 58 130 130 130c65 0 119 -47 129 -109h-19c-10 51 -56 91 -110 91c-62 0 -112 -50 -112 -112v-101h282zM414 -18v189c0 15 -13 27 -28 27h-340
c-15 0 -28 -12 -28 -27v-189c0 -15 13 -28 28 -28h340c15 0 28 13 28 28zM216 131c10 0 19 -9 19 -19c0 -7 -4 -13 -9 -16v-45h-19v45c-5 3 -9 9 -9 16c0 10 8 19 18 19z" />
    <glyph glyph-name="uniF1A1" unicode="&#xf1a1;" horiz-adv-x="497" 
d="M248 448l249 -145v-121v0l-240 -105v-141h-19v141l-238 105v0v121zM19 194h2l218 123l1 105l-221 -130v-98zM257 97l200 87l-208 117l-209 -117l198 -87v100l-44 -44l-12 13l66 67l67 -67l-12 -13l-46 46v-102zM479 194v99l-221 129v-105l217 -123h4zM497 182v0v0v0z" />
    <glyph glyph-name="uniF1A2" unicode="&#xf1a2;" horiz-adv-x="282" 
d="M273 337c5 0 9 -4 9 -9v-77c0 -5 -4 -9 -9 -9h-29l-1 -33c0 -3 -1 -6 -4 -8s-76 -48 -95 -60v-95c26 -4 47 -28 47 -55c0 -30 -26 -55 -56 -55s-55 25 -55 55c0 27 20 51 46 55v33l-84 59c-2 2 -4 4 -4 7v33c-22 3 -38 22 -38 44c0 24 20 44 44 44s44 -20 44 -44
c0 -20 -13 -38 -32 -43v-29l70 -49v309l-29 -41l-15 10l46 65c2 2 5 4 8 4s5 -2 7 -4l46 -65l-15 -10l-30 42v-249c23 15 67 43 81 52l1 28h-30c-5 0 -9 4 -9 9v77c0 5 4 9 9 9h77z" />
    <glyph glyph-name="uniF1A3" unicode="&#xf1a3;" 
d="M256 448c141 0 256 -115 256 -256c0 -69 -28 -134 -77 -183c-48 -47 -111 -73 -179 -73s-132 27 -180 74c-49 49 -76 113 -76 182c0 141 115 256 256 256zM424 23c45 45 70 105 70 169c0 131 -107 238 -238 238s-238 -107 -238 -238c0 -64 25 -123 70 -168
c5 8 12 19 16 32c6 21 24 32 24 32s55 14 74 22c9 4 14 14 17 23c-29 17 -49 57 -49 107c0 69 39 88 86 88s86 -19 86 -88c0 -50 -21 -90 -50 -107c3 -9 9 -19 18 -23c19 -8 73 -22 73 -22s19 -11 25 -32c4 -13 11 -25 16 -33z" />
    <glyph glyph-name="uniF1A4" unicode="&#xf1a4;" 
d="M481 66c9 -29 26 -53 31 -59c-33 -32 -144 -49 -255 -49c-112 0 -224 17 -257 49c5 6 22 31 31 59c9 31 36 47 36 47s82 21 109 33c9 4 15 11 19 19c-39 28 -66 83 -66 153c0 102 57 130 127 130s127 -28 127 -130c0 -71 -26 -126 -66 -153c4 -8 10 -15 18 -19
c27 -12 109 -33 109 -33s28 -16 37 -47zM27 12c38 -20 128 -34 230 -34s190 13 228 33c-8 12 -17 30 -23 50c-5 18 -21 30 -26 34c-16 4 -83 21 -109 33c-11 5 -21 14 -28 27l-9 16l15 10c36 25 58 77 58 137c0 77 -32 110 -107 110s-107 -33 -107 -110
c0 -60 22 -112 58 -137l14 -10l-8 -16c-7 -13 -17 -22 -29 -27c-26 -12 -92 -29 -108 -33c-5 -4 -20 -16 -26 -34c-6 -19 -15 -37 -23 -49z" />
    <glyph glyph-name="uniF1A5" unicode="&#xf1a5;" 
d="M409 265c60 -21 103 -79 103 -146c0 -86 -69 -156 -155 -156c-38 0 -74 15 -101 38c-27 -23 -63 -38 -101 -38c-86 0 -155 70 -155 156c0 67 43 125 103 146c-2 9 -2 19 -2 28c0 86 69 155 155 155s155 -69 155 -155c0 -9 0 -19 -2 -28zM119 293c0 -8 1 -16 2 -23
c11 3 22 4 34 4c38 0 74 -14 101 -37c27 23 63 37 101 37c12 0 23 -1 34 -4c1 7 2 15 2 23c0 76 -61 137 -137 137s-137 -61 -137 -137zM292 119c0 8 -1 15 -2 22c-11 -3 -22 -4 -34 -4s-23 2 -34 4c-1 -7 -2 -14 -2 -22c0 -36 14 -69 36 -93c22 24 36 57 36 93zM256 156
c10 0 20 1 30 3c-6 20 -16 37 -30 52c-14 -15 -24 -32 -30 -52c10 -2 20 -3 30 -3zM208 164c7 23 19 43 35 60c-24 20 -55 32 -88 32c-10 0 -20 -2 -30 -4c13 -41 43 -73 83 -88zM269 224c16 -17 28 -37 35 -60c40 15 70 47 83 88c-10 2 -20 4 -30 4c-33 0 -64 -12 -88 -32z
M18 119c0 -76 61 -137 137 -137c33 0 64 11 88 31c-26 28 -42 65 -42 106c0 9 1 18 3 27c-46 16 -82 54 -96 101c-52 -19 -90 -69 -90 -128zM357 -18c76 0 137 61 137 137c0 59 -38 109 -90 128c-14 -47 -50 -85 -96 -101c2 -9 3 -18 3 -27c0 -41 -16 -78 -42 -106
c24 -20 55 -31 88 -31z" />
    <glyph glyph-name="uniF1A6" unicode="&#xf1a6;" 
d="M65 448c36 0 64 -29 64 -65s-28 -64 -64 -64s-65 28 -65 64s29 65 65 65zM256 448c36 0 65 -29 65 -65s-29 -64 -65 -64s-64 28 -64 64s28 65 64 65zM448 448c36 0 64 -29 64 -65s-28 -64 -64 -64s-65 28 -65 64s29 65 65 65z" />
    <glyph glyph-name="uniF1A7" unicode="&#xf1a7;" 
d="M65 448c36 0 64 -29 64 -65s-28 -64 -64 -64s-65 28 -65 64s29 65 65 65zM65 337c26 0 46 20 46 46s-20 47 -46 47s-47 -21 -47 -47s21 -46 47 -46zM256 448c36 0 65 -29 65 -65s-29 -64 -65 -64s-65 28 -65 64s29 65 65 65zM256 337c26 0 47 21 47 47s-21 46 -47 46
s-47 -20 -47 -46s21 -47 47 -47zM447 448c36 0 65 -29 65 -65s-29 -64 -65 -64s-64 28 -64 64s28 65 64 65zM447 337c26 0 47 20 47 46s-21 47 -47 47s-46 -21 -46 -47s20 -46 46 -46z" />
    <glyph glyph-name="uniF1A8" unicode="&#xf1a8;" 
d="M208 95c30 30 66 30 96 0l-12 -12c-23 23 -49 23 -72 0zM149 173c67 67 147 67 214 0l-13 -13c-60 60 -128 60 -188 0zM73 247c57 57 120 87 183 87s126 -30 183 -87l-13 -12c-54 54 -111 81 -170 81s-116 -27 -170 -81zM256 448c88 0 177 -42 256 -121l-13 -13
c-77 77 -158 116 -243 116s-166 -39 -243 -116l-13 13c79 79 168 121 256 121z" />
    <glyph glyph-name="uniF1A9" unicode="&#xf1a9;" 
d="M219 68c22 22 50 22 72 0l-12 -13c-15 15 -33 15 -48 0zM177 123c49 49 107 49 156 0l-13 -13c-42 42 -88 42 -130 0zM123 176c41 41 86 62 132 62s91 -21 132 -62l-13 -13c-38 38 -78 57 -119 57s-81 -19 -119 -57zM255 319c63 0 127 -30 184 -87l-13 -13
c-54 54 -112 82 -171 82s-117 -28 -171 -82l-13 13c57 57 121 87 184 87zM256 448c141 0 256 -115 256 -256s-115 -256 -256 -256s-256 115 -256 256s115 256 256 256zM256 -46c131 0 238 107 238 238s-107 238 -238 238s-238 -107 -238 -238s107 -238 238 -238z" />
    <glyph glyph-name="uniF1AA" unicode="&#xf1aa;" 
d="M495 383c28 -49 21 -113 -21 -155c-37 -37 -91 -47 -137 -29l-247 -248c-20 -20 -55 -20 -75 0s-20 55 0 75l248 247c-18 46 -8 100 29 137c42 42 106 49 155 21l-69 -70c-13 -13 -13 -34 0 -47s34 -13 47 0zM59 -18c4 4 4 9 0 13s-9 4 -13 0s-4 -9 0 -13s9 -4 13 0z" />
    <glyph glyph-name="uniF1AB" unicode="&#xf1ab;" 
d="M495 383c28 -49 21 -113 -21 -155c-37 -37 -91 -47 -137 -29l-247 -248c-20 -20 -55 -20 -75 0s-20 55 0 75l248 247c-18 46 -8 100 29 137c42 42 106 49 155 21l-69 -70c-13 -13 -13 -34 0 -47s34 -13 47 0zM461 242c29 29 39 70 28 108l-50 -50c-20 -20 -54 -19 -74 1
s-21 54 -1 74l50 50c-38 11 -79 1 -108 -28c-35 -35 -41 -87 -20 -128l-257 -257c-13 -13 -13 -34 0 -47s34 -13 47 0l257 257c41 -21 93 -15 128 20zM43 -12c0 6 4 10 10 10s9 -4 9 -10s-3 -9 -9 -9s-10 3 -10 9z" />
  </font>
</defs>
</svg>
